古哥论坛

 找回密码
 注册(分享大片)
查看: 416|回复: 39

[孟买酒店/失控危城]2018.1080p.BluRay.REMUX.AVC.DTS-HD.MA.5.1-FGT 34.47GB

[复制链接]
发表于 2019-6-15 23:01:19 | 显示全部楼层 |阅读模式
4K天堂


◎译  名 孟买酒店/失控危城(台)
◎片  名 Hotel Mumbai
◎年  代 2018
◎产  地 澳大利亚/美国/印度
◎类  别 剧情/惊悚/历史
◎语  言 英语/印地语/旁遮普语/希腊语/俄语/阿拉伯语/乌尔都语/波斯语
◎上映日期 2018-09-07(多伦多电影节) / 2018-10-10(阿德莱德电影节)
◎IMDb评分  7.8/10 from 8855 users
◎蓝光高清   http://www.4ktt.com
◎豆瓣评分 8.4/10 from 2756 users
◎豆瓣链接 https://movie.douban.com/subject/26794701/
◎片  长 125分钟
◎导  演 安东尼·马拉斯 Anthony Maras
◎编  剧 安东尼·马拉斯 Anthony Maras / 约翰·科里 John Collee
◎主  演 艾米·汉莫 Armie Hammer
      纳赞宁·波妮阿蒂 Nazanin Boniadi
      戴夫·帕特尔 Dev Patel
      詹森·艾萨克 Jason Isaacs
      阿努潘·凯尔 Anupam Kher
      刘承羽 Natasha Liu Bordizzo
      安格斯·麦克拉伦 Angus McLaren
      萨钦·乔伯 Sachin Joab
      蒂尔达·格哈姆-哈维 Tilda Cobham-Hervey
      维品·沙尔马 Vipin Sharma
      阿布罗伊·辛格 Abhiroy Singh
      迪维亚·阿妮 Divya Unny
      桑迪普·博雅卡 Sandeep Bhojak
      Zenia Starr

◎简  介  
  影片真实再现震惊世界的“印度9·11”孟买恐袭事件,2008年11月,著名的泰姬陵酒店意外遭到恐怖分子入侵,恐怖分子无差别行凶,让整个酒店陷入绝望之境,百余名酒店住客及员工被困,无人得知何时能等来救援,一场与死神的赛跑就此开启…

  1. Video
  2. ID : 1
  3. Format : AVC
  4. Format/Info : Advanced Video Codec
  5. Format profile : High@L4.1
  6. Format settings : CABAC / 4 Ref Frames
  7. Format settings, CABAC : Yes
  8. Format settings, ReFrames : 4 frames
  9. Codec ID : V_MPEG4/ISO/AVC
  10. Duration : 2 h 2 min
  11. Bit rate mode : Variable
  12. Bit rate : 35.1 Mb/s
  13. Maximum bit rate : 38.0 Mb/s
  14. Width : 1 920 pixels
  15. Height : 1 080 pixels
  16. Display aspect ratio : 16:9
  17. Frame rate mode : Constant
  18. Frame rate : 23.976 (24000/1001) FPS
  19. Color space : YUV
  20. Chroma subsampling : 4:2:0
  21. Bit depth : 8 bits
  22. Scan type : Progressive
  23. Bits/(Pixel*Frame) : 0.706
  24. Stream size : 30.1 GiB (87%)
  25. Title : Hotel.Mumbai.2018.1080p.BluRay.REMUX.AVC.DTS-HD.MA.5.1-FGT
  26. Language : English
  27. Default : No
  28. Forced : No

  29. Audio #1
  30. ID : 2
  31. Format : DTS XLL
  32. Format/Info : Digital Theater Systems
  33. Commercial name : DTS-HD Master Audio
  34. Codec ID : A_DTS
  35. Duration : 2 h 2 min
  36. Bit rate mode : Variable
  37. Bit rate : 4 141 kb/s
  38. Channel(s) : 6 channels
  39. Channel layout : C L R Ls Rs LFE
  40. Sampling rate : 48.0 kHz
  41. Frame rate : 93.750 FPS (512 SPF)
  42. Bit depth : 24 bits
  43. Compression mode : Lossless
  44. Stream size : 3.55 GiB (10%)
  45. Title : Hotel.Mumbai.2018.1080p.BluRay.REMUX.AVC.DTS-HD.MA.5.1-FGT
  46. Language : English
  47. Default : Yes
  48. Forced : No

  49. Audio #2
  50. ID : 3
  51. Format : DTS XLL
  52. Format/Info : Digital Theater Systems
  53. Commercial name : DTS-HD Master Audio
  54. Codec ID : A_DTS
  55. Duration : 2 h 2 min
  56. Bit rate mode : Variable
  57. Bit rate : 924 kb/s
  58. Channel(s) : 2 channels
  59. Channel layout : L R
  60. Sampling rate : 48.0 kHz
  61. Frame rate : 93.750 FPS (512 SPF)
  62. Bit depth : 16 bits
  63. Compression mode : Lossless
  64. Stream size : 812 MiB (2%)
  65. Title : Hotel.Mumbai.2018.1080p.BluRay.REMUX.AVC.DTS-HD.MA.5.1-FGT
  66. Language : English
  67. Default : No
  68. Forced : No

  69. Text
  70. ID : 4
  71. Format : PGS
  72. Muxing mode : zlib
  73. Codec ID : S_HDMV/PGS
  74. Codec ID/Info : Picture based subtitle format used on BDs/HD-DVDs
  75. Duration : 1 h 55 min
  76. Bit rate : 31.0 kb/s
  77. Count of elements : 2248
  78. Stream size : 25.5 MiB (0%)
  79. Title : English-PGS
  80. Language : English
  81. Default : Yes
  82. Forced : No
复制代码









游客,如果您要查看本帖隐藏内容请回复,如果您想无广告、免回复、下载附件免影视币请开通VIP:VIP传送门


提示:如迅雷下载提示"任务出错"、"因版权无法下载",请更换【迅雷5】,提取码: ai7u
古哥影视论坛www.gugeys.cc 高清电影,蓝光电影,最新电影,电影天堂,影视帝国,人人影视
点我免费领影视币
发表于 2019-6-16 00:27:03 | 显示全部楼层
谢谢发布 ,下载看看
古哥影视论坛www.gugeys.cc 高清电影,蓝光电影,最新电影,电影天堂,影视帝国,人人影视
点我免费领影视币
回复 支持 反对

使用道具 举报

发表于 2019-6-16 00:53:01 | 显示全部楼层
这个要看一下吧
古哥影视论坛www.gugeys.cc 高清电影,蓝光电影,最新电影,电影天堂,影视帝国,人人影视
点我免费领影视币
回复 支持 反对

使用道具 举报

发表于 2019-6-16 07:24:15 | 显示全部楼层
感谢共享!;楼主辛苦了!!谢谢!
古哥影视论坛www.gugeys.cc 高清电影,蓝光电影,最新电影,电影天堂,影视帝国,人人影视
点我免费领影视币
回复 支持 反对

使用道具 举报

发表于 2019-6-16 10:18:02 | 显示全部楼层
谢谢楼主分享
古哥影视论坛www.gugeys.cc 高清电影,蓝光电影,最新电影,电影天堂,影视帝国,人人影视
点我免费领影视币
回复 支持 反对

使用道具 举报

发表于 2019-6-16 10:48:34 | 显示全部楼层
谢谢楼主分享
古哥影视论坛www.gugeys.cc 高清电影,蓝光电影,最新电影,电影天堂,影视帝国,人人影视
点我免费领影视币
回复 支持 反对

使用道具 举报

发表于 2019-6-16 11:19:17 | 显示全部楼层
哈哈哈 下载瞅瞅
古哥影视论坛www.gugeys.cc 高清电影,蓝光电影,最新电影,电影天堂,影视帝国,人人影视
点我免费领影视币
回复 支持 反对

使用道具 举报

发表于 2019-6-16 11:29:49 | 显示全部楼层
孟买酒店   感谢分享
古哥影视论坛www.gugeys.cc 高清电影,蓝光电影,最新电影,电影天堂,影视帝国,人人影视
点我免费领影视币
回复 支持 反对

使用道具 举报

发表于 2019-6-16 11:30:43 | 显示全部楼层
孟买酒店   感谢分享
古哥影视论坛www.gugeys.cc 高清电影,蓝光电影,最新电影,电影天堂,影视帝国,人人影视
点我免费领影视币
回复 支持 反对

使用道具 举报

发表于 2019-6-16 13:02:02 | 显示全部楼层
听说影片不错,下载欣赏一下
古哥影视论坛www.gugeys.cc 高清电影,蓝光电影,最新电影,电影天堂,影视帝国,人人影视
点我免费领影视币
回复 支持 反对

使用道具 举报

发表于 2019-6-16 13:02:59 | 显示全部楼层
听说不错,下载欣赏
古哥影视论坛www.gugeys.cc 高清电影,蓝光电影,最新电影,电影天堂,影视帝国,人人影视
点我免费领影视币
回复 支持 反对

使用道具 举报

发表于 2019-6-16 13:14:42 | 显示全部楼层
谢谢分享,下来看看
古哥影视论坛www.gugeys.cc 高清电影,蓝光电影,最新电影,电影天堂,影视帝国,人人影视
点我免费领影视币
回复 支持 反对

使用道具 举报

发表于 2019-6-16 13:28:27 | 显示全部楼层
谢谢楼主分享
古哥影视论坛www.gugeys.cc 高清电影,蓝光电影,最新电影,电影天堂,影视帝国,人人影视
点我免费领影视币
回复 支持 反对

使用道具 举报

发表于 2019-6-16 14:04:36 | 显示全部楼层
ZG LAISHISHI
古哥影视论坛www.gugeys.cc 高清电影,蓝光电影,最新电影,电影天堂,影视帝国,人人影视
点我免费领影视币
回复 支持 反对

使用道具 举报

发表于 2019-6-16 14:09:13 | 显示全部楼层
谢谢分享哈哈
古哥影视论坛www.gugeys.cc 高清电影,蓝光电影,最新电影,电影天堂,影视帝国,人人影视
点我免费领影视币
回复 支持 反对

使用道具 举报

发表于 2019-6-16 15:49:08 | 显示全部楼层
感谢楼主分享
古哥影视论坛www.gugeys.cc 高清电影,蓝光电影,最新电影,电影天堂,影视帝国,人人影视
点我免费领影视币
回复 支持 反对

使用道具 举报

发表于 2019-6-16 19:09:11 | 显示全部楼层
感谢楼主分享!永远支持古哥影视
古哥影视论坛www.gugeys.cc 高清电影,蓝光电影,最新电影,电影天堂,影视帝国,人人影视
点我免费领影视币
回复 支持 反对

使用道具 举报

您需要登录后才可以回帖 登录 | 注册(分享大片)

本版积分规则

影视帝国免责声明
本站提供网上学习交流和自由讨论使用,所有资源均来自互联网公开渠道,发布和个人言论并不代表本站立场,本站不负任何责任.
如发现有侵权行为,请与我们联系.我们将立刻从网站上删除,并向所有持版权者致最深歉意.
影视帝国论坛已经安全运行

QQ|小黑屋|手机版|Archiver|古哥论坛 ( 苏ICP备12074540号 )

GMT+8, 2019-7-16 06:16 , Processed in 0.217566 second(s), 21 queries , Gzip On.

Powered by Discuz! X3.2

© 2001-2013 Comsenz Inc.

快速回复 返回顶部 返回列表