古哥论坛

 找回密码
 注册(分享大片)
查看: 1011|回复: 30

[1080P] [人面鱼:红衣小女孩外传]2018.CHINESE.1080p.BluRay.x264-WiKi 国语中字/9.65 GiB

[复制链接]
发表于 2019-4-9 22:03:59 | 显示全部楼层 |阅读模式
4K天堂

◎片  名  The Tag Along Devil Fish
◎译  名  人面鱼:红衣小女孩外传 / 红衣小女孩3
◎年  代  2018
◎国  家  台湾
◎电影类型  恐怖
◎语  言  汉语普通话
◎上映日期  2018-11-12(金马影展) / 2018-11-23(台湾)
◎iMDB评分  4.8/10 (151 votes)
◎蓝光高清   http://www.4ktt.com
◎片  长  1h:53m:56s
◎导  演  庄绚维 Hsuan Wei Chuang
◎编  剧  简士耕 Shi-Geng Jian
◎演  员  郑人硕 Rexen Cheng
       徐若u
       吴至v Chaster Wu
       张书伟 Joe Chang
       龙劭华 Siu Wa Lung
       高慧君 Francesca Kao
       陈少卉  Shaohui Chen
       辛佳颖 Belle Hsin

◎简  介
         《人面鱼:红衣小女孩外传》改编自台湾乡野传说“人面鱼“,1990年代有人在高雄县冈山镇(今高雄市冈山区)出游钓起一尾吴郭鱼(罗非鱼),烧烤食用时却听到诡异的声音询问:“鱼肉好吃否?”之后其拍摄的照片鱼的上头还浮现人脸,令当事人毛骨悚然,不过事件本身有诸多疑点被认为是无根据的谣传。

Video

ID : 1

Format : AVC

Format/Info : Advanced Video Codec

Format profile : High@L4.1

Format settings : CABAC / 5 Ref Frames

Format settings, CABAC : Yes

Format settings, ReFrames : 5 frames

Codec ID : V_MPEG4/ISO/AVC

Duration : 1 h 53 min

Bit rate : 11.5 Mb/s

Width : 1 920 pixels

Height : 806 pixels

Display aspect ratio : 2.40:1

Frame rate mode : Constant

Frame rate : 24.000 FPS

Color space : YUV

Chroma subsampling : 4:2:0

Bit depth : 8 bits

Scan type : Progressive

Bits/(Pixel*Frame) : 0.309

Stream size : 9.14 GiB (95%)

Writing library : x264 core 157 r2969 d4099dd

Encoding settings : cabac=1 / ref=5 / deblock=1:-3:-3 / analyse=0x3:0x133 / me=umh / subme=10 / psy=1 / psy_rd=1.00:0.00 / mixed_ref=1 / me_range=64 / chroma_me=1 / trellis=2 / 8x8dct=1 / cqm=0 / deadzone=21,11 / fast_pskip=0 / chroma_qp_offset=-2 / threads=24 / lookahead_threads=4 / sliced_threads=0 / nr=0 / decimate=0 / interlaced=0 / bluray_compat=0 / constrained_intra=0 / bframes=8 / b_pyramid=2 / b_adapt=2 / b_bias=0 / direct=3 / weightb=1 / open_gop=0 / weightp=2 / keyint=250 / keyint_min=24 / scenecut=40 / intra_refresh=0 / rc_lookahead=60 / rc=crf / mbtree=0 / crf=16.8 / qcomp=0.60 / qpmin=0 / qpmax=69 / qpstep=4 / vbv_maxrate=62500 / vbv_bufsize=78125 / crf_max=0.0 / nal_hrd=none / filler=0 / ip_ratio=1.30 / pb_ratio=1.20 / aq=3:0.80 / zones=51,892,crf=14/156742,161628,b=0.5

Language : English

Default : Yes

Forced : No



Audio

ID : 2

Format : AC-3

Format/Info : Audio Coding 3

Commercial name : Dolby Digital

Codec ID : A_AC3

Duration : 1 h 53 min

Bit rate mode : Constant

Bit rate : 640 kb/s

Channel(s) : 6 channels

Channel layout : L R C LFE Ls Rs

Sampling rate : 48.0 kHz

Frame rate : 31.250 FPS (1536 SPF)

Bit depth : 16 bits

Compression mode : Lossy

Stream size : 522 MiB (5%)

Language : Chinese

Service kind : Complete Main

Default : Yes

Forced : No



Text #1

ID : 3

Format : UTF-8

Codec ID : S_TEXT/UTF8

Codec ID/Info : UTF-8 Plain Text

Duration : 1 h 52 min

Bit rate : 22 b/s

Count of elements : 741

Stream size : 18.2 KiB (0%)

Language : English

Default : Yes

Forced : Yes



Text #2

ID : 4

Format : UTF-8

Codec ID : S_TEXT/UTF8

Codec ID/Info : UTF-8 Plain Text

Duration : 1 h 51 min

Bit rate : 17 b/s

Count of elements : 749

Stream size : 14.6 KiB (0%)

Title : CHS

Language : Chinese

Default : No

Forced : No



Text #3

ID : 5

Format : UTF-8

Codec ID : S_TEXT/UTF8

Codec ID/Info : UTF-8 Plain Text

Duration : 1 h 51 min

Bit rate : 17 b/s

Count of elements : 749

Stream size : 14.6 KiB (0%)

Title : CHT

Language : Chinese

Default : No

Forced : No







The.Tag.Along.Devil.Fish.2018.CHINESE.1080p.BluRay.x264-WiKi.torrent (48.8 KB, 下载次数: 109)
提示:如迅雷下载提示"任务出错"、"因版权无法下载",请更换【迅雷5】,提取码: ai7u
古哥影视论坛www.gugeys.cc 高清电影,蓝光电影,最新电影,电影天堂,影视帝国,人人影视
发表于 2019-4-9 23:23:51 | 显示全部楼层
喜欢恐怖片,感谢楼主,先收藏。
古哥影视论坛www.gugeys.cc 高清电影,蓝光电影,最新电影,电影天堂,影视帝国,人人影视
回复 支持 反对

使用道具 举报

发表于 2019-4-10 02:57:48 | 显示全部楼层
感谢楼主分享影片
古哥影视论坛www.gugeys.cc 高清电影,蓝光电影,最新电影,电影天堂,影视帝国,人人影视
回复 支持 反对

使用道具 举报

发表于 2019-4-10 06:00:00 | 显示全部楼层

这东西我收了!谢谢楼主!古哥影视真好!一定要坚持下去,支持不住时请让大家捐助
古哥影视论坛www.gugeys.cc 高清电影,蓝光电影,最新电影,电影天堂,影视帝国,人人影视
回复 支持 反对

使用道具 举报

发表于 2019-4-10 10:50:08 | 显示全部楼层

这东西我收了!谢谢楼主!古哥影视真好!一定要坚持下去,支持不住时请让大家捐助
古哥影视论坛www.gugeys.cc 高清电影,蓝光电影,最新电影,电影天堂,影视帝国,人人影视
回复 支持 反对

使用道具 举报

发表于 2019-4-10 10:53:58 | 显示全部楼层
分数不高啊,不知道咋么样,楼主辛苦
古哥影视论坛www.gugeys.cc 高清电影,蓝光电影,最新电影,电影天堂,影视帝国,人人影视
回复 支持 反对

使用道具 举报

发表于 2019-4-10 11:30:33 | 显示全部楼层

既然你诚信诚意的推荐了,那我就勉为其难的看看吧!爱电影,爱生活古哥影视不走平凡路。
古哥影视论坛www.gugeys.cc 高清电影,蓝光电影,最新电影,电影天堂,影视帝国,人人影视
回复 支持 反对

使用道具 举报

发表于 2019-4-10 14:03:37 | 显示全部楼层

这东西我收了!谢谢楼主!古哥影视真好!一定要坚持下去,支持不住时请让大家捐助
古哥影视论坛www.gugeys.cc 高清电影,蓝光电影,最新电影,电影天堂,影视帝国,人人影视
回复 支持 反对

使用道具 举报

发表于 2019-4-10 18:45:52 | 显示全部楼层
感谢楼主分享!永远支持古哥影视
古哥影视论坛www.gugeys.cc 高清电影,蓝光电影,最新电影,电影天堂,影视帝国,人人影视
回复 支持 反对

使用道具 举报

发表于 2019-4-10 21:27:22 | 显示全部楼层

楼主发贴辛苦了,谢谢楼主分享!我觉得古哥影视的电影是最值得收藏的!
古哥影视论坛www.gugeys.cc 高清电影,蓝光电影,最新电影,电影天堂,影视帝国,人人影视
回复 支持 反对

使用道具 举报

发表于 2019-4-10 22:04:28 | 显示全部楼层
楼主发贴辛苦了,谢谢楼主分享!我觉得古哥影视的电影是最值得收藏的!
古哥影视论坛www.gugeys.cc 高清电影,蓝光电影,最新电影,电影天堂,影视帝国,人人影视
回复 支持 反对

使用道具 举报

发表于 2019-4-10 22:35:07 | 显示全部楼层
不错的恐怖片资源啊!谢谢分享!
古哥影视论坛www.gugeys.cc 高清电影,蓝光电影,最新电影,电影天堂,影视帝国,人人影视
回复 支持 反对

使用道具 举报

发表于 2019-4-11 10:34:57 | 显示全部楼层
楼主发贴辛苦了,谢谢楼主分享!我觉得古哥影视的电影是最值得收藏的!
古哥影视论坛www.gugeys.cc 高清电影,蓝光电影,最新电影,电影天堂,影视帝国,人人影视
回复 支持 反对

使用道具 举报

发表于 2019-4-11 12:15:15 | 显示全部楼层
谢谢楼主分享!
古哥影视论坛www.gugeys.cc 高清电影,蓝光电影,最新电影,电影天堂,影视帝国,人人影视
回复 支持 反对

使用道具 举报

发表于 2019-4-11 16:45:40 | 显示全部楼层
hjk'tu'y'ti推一推与i退热特瑞特瑞特人
古哥影视论坛www.gugeys.cc 高清电影,蓝光电影,最新电影,电影天堂,影视帝国,人人影视
回复 支持 反对

使用道具 举报

发表于 2019-4-11 18:01:33 | 显示全部楼层
感谢分享。
好久没看恐怖片了,可以存在BiFi Pro,以后慢慢看
古哥影视论坛www.gugeys.cc 高清电影,蓝光电影,最新电影,电影天堂,影视帝国,人人影视
回复 支持 反对

使用道具 举报

发表于 2019-4-11 21:25:15 | 显示全部楼层

感谢楼主大大分享!
感谢楼主大大分享!
古哥影视论坛www.gugeys.cc 高清电影,蓝光电影,最新电影,电影天堂,影视帝国,人人影视
回复 支持 反对

使用道具 举报

发表于 2019-4-11 21:42:43 | 显示全部楼层
谢谢分享,辛苦了
古哥影视论坛www.gugeys.cc 高清电影,蓝光电影,最新电影,电影天堂,影视帝国,人人影视
回复 支持 反对

使用道具 举报

发表于 2019-4-12 00:36:40 | 显示全部楼层

我看不错噢 谢谢楼主!古哥影视越来越好,高清电影还得上这来下载!
古哥影视论坛www.gugeys.cc 高清电影,蓝光电影,最新电影,电影天堂,影视帝国,人人影视
回复 支持 反对

使用道具 举报

发表于 2019-4-12 08:55:05 | 显示全部楼层
感谢楼主无私分享
古哥影视论坛www.gugeys.cc 高清电影,蓝光电影,最新电影,电影天堂,影视帝国,人人影视
回复 支持 反对

使用道具 举报

懒得打字嘛,点击右侧快捷回复->
您需要登录后才可以回帖 登录 | 注册(分享大片)

本版积分规则

影视帝国免责声明
本站提供网上学习交流和自由讨论使用,所有资源均来自互联网公开渠道,发布和个人言论并不代表本站立场,本站不负任何责任.
如发现有侵权行为,请与我们联系.我们将立刻从网站上删除,并向所有持版权者致最深歉意.
影视帝国论坛已经安全运行

QQ|小黑屋|手机版|Archiver|古哥论坛 ( 苏ICP备12074540号 )

GMT+8, 2019-4-20 19:07 , Processed in 0.264177 second(s), 22 queries , Gzip On.

Powered by Discuz! X3.2

© 2001-2013 Comsenz Inc.

快速回复 返回顶部 返回列表