古哥论坛

 找回密码
 注册(分享大片)
查看: 1219|回复: 106

[1080P] [绑灵]Blinding.Souls.2019.BluRay.1080p.x264.AC3.2Audios-CMCT[国粤双语中字/7.4G]

[复制链接]
发表于 2020-3-22 13:57:09 | 显示全部楼层 |阅读模式
4K天堂

◎译  名 绑灵 / Blinding Souls
◎年  代 2016
◎产  地 中国香港 / 中国台湾
◎类  别 恐怖
◎语  言 粤语 / 汉语普通话
◎上映日期 2019-09-05(中国香港)
◎IMDb评分  7.7/10 from 41 users
◎魔爪论坛   http://www.91mz.cc
◎豆瓣评分 4.1/10 from 69 users
◎豆瓣链接 https://movie.douban.com/subject/27041454/
◎片  长 90分钟
◎导  演 陈鹏振 Pang-chun Chan
◎主  演 惠英红 Kara Wai Ying Hung
       陈家乐 Carlos Chan
       岑日珈 Angie Shum
       盛君 Janelle Sing
       曹佑宁 Yu-ning Tsao
       黄s怡 Albee Huang
       麦家瑜 Keeva Mak
       袁祥仁 Cheung-Yan Yuen
       潘绍聪 Edmund Poon Siu-Chung


◎简  介  
  f生何梓o(曹佑 )е四位大W同W淼郊⒁被⑿5哪感5码院涯钜环。W府曾被日最I檐用室,v年也流髦S多可怕的`事件。
  _校L(袁祥仁 )和方老(小薰)分eе他在校雀魈⒂^K解述v史。人淼叫炔┪镳^,看到r日Y料r均感到o比d^。他更在f存刊物中,看到一本f生日,竟了^往f生曾遇到的NN`事件,e面更提到一宗W生神秘失事件,究竟妊e[藏了什N秘密?他否也遇上相同的`事件?

General
Unique ID                                : 171679322344288211597574654927444838288 (0x81283C1A1DAD0397AE7FB5AFDCDB0790)
Complete name                            : F:\绑灵.2019.1080p.国粤双语.简繁中字£CMCT轻语\[绑灵].Blinding.Souls.2019.BluRay.1080p.x264.AC3.2Audios-CMCT.mkv
Format                                   : Matroska
Format version                           : Version 4
File size                                : 7.40 GiB
Duration                                 : 1 h 28 min
Overall bit rate                         : 12.0 Mb/s
Encoded date                             : UTC 2020-03-19 00:15:07
Writing application                      : mkvmerge v7.0.0 ('Where We Going') 32bit built on Jun  9 2014 15:08:34
Writing library                          : libebml v1.3.0 + libmatroska v1.4.1
Attachments                              : cronospro.otf / STKaiti.ttf

Video
ID                                       : 1
Format                                   : AVC
Format/Info                              : Advanced Video Codec
Format profile                           : [email protected]
Format settings                          : CABAC / 4 Ref Frames
Format settings, CABAC                   : Yes
Format settings, Reference frames        : 4 frames
Codec ID                                 : V_MPEG4/ISO/AVC
Duration                                 : 1 h 28 min
Bit rate                                 : 10.7 Mb/s
Width                                    : 1 920 pixels
Height                                   : 1 080 pixels
Display aspect ratio                     : 16:9
Frame rate mode                          : Constant
Frame rate                               : 24.000 FPS
Color space                              : YUV
Chroma subsampling                       : 4:2:0
Bit depth                                : 8 bits
Scan type                                : Progressive
Bits/(Pixel*Frame)                       : 0.214
Stream size                              : 6.59 GiB (89%)
Title                                    : CMCT团队荣誉出品
Writing library                          : x264 core 142 r2431 ac76440
Encoding settings                        : cabac=1 / ref=4 / deblock=1:-3:-3 / analyse=0x3:0x133 / me=umh / subme=11 / psy=1 / psy_rd=1.00:0.00 / mixed_ref=1 / me_range=48 / chroma_me=1 / trellis=2 / 8x8dct=1 / cqm=0 / deadzone=21,11 / fast_pskip=0 / chroma_qp_offset=-2 / threads=18 / lookahead_threads=3 / sliced_threads=0 / nr=0 / decimate=1 / interlaced=0 / bluray_compat=0 / constrained_intra=0 / bframes=8 / b_pyramid=2 / b_adapt=2 / b_bias=0 / direct=1 / weightb=1 / open_gop=0 / weightp=2 / keyint=240 / keyint_min=22 / scenecut=40 / intra_refresh=0 / rc_lookahead=60 / rc=2pass / mbtree=1 / bitrate=10656 / ratetol=1.0 / qcomp=0.60 / qpmin=0 / qpmax=69 / qpstep=4 / cplxblur=20.0 / qblur=0.5 / vbv_maxrate=50000 / vbv_bufsize=50000 / nal_hrd=none / filler=0 / ip_ratio=1.40 / aq=1:1.00
Language                                 : Chinese
Default                                  : Yes
Forced                                   : No

Audio #1
ID                                       : 2
Format                                   : AC-3
Format/Info                              : Audio Coding 3
Commercial name                          : Dolby Digital
Codec ID                                 : A_AC3
Duration                                 : 1 h 28 min
Bit rate mode                            : Constant
Bit rate                                 : 640 kb/s
Channel(s)                               : 6 channels
Channel layout                           : L R C LFE Ls Rs
Sampling rate                            : 48.0 kHz
Frame rate                               : 31.250 FPS (1536 SPF)
Compression mode                         : Lossy
Stream size                              : 405 MiB (5%)
Title                                    : 粤语
Language                                 : Chinese
Service kind                             : Complete Main
Default                                  : Yes
Forced                                   : No

Audio #2
ID                                       : 3
Format                                   : AC-3
Format/Info                              : Audio Coding 3
Commercial name                          : Dolby Digital
Codec ID                                 : A_AC3
Duration                                 : 1 h 28 min
Bit rate mode                            : Constant
Bit rate                                 : 640 kb/s
Channel(s)                               : 6 channels
Channel layout                           : L R C LFE Ls Rs
Sampling rate                            : 48.0 kHz
Frame rate                               : 31.250 FPS (1536 SPF)
Compression mode                         : Lossy
Stream size                              : 405 MiB (5%)
Title                                    : 国语
Language                                 : Chinese
Service kind                             : Complete Main
Default                                  : No
Forced                                   : No

Text #1
ID                                       : 4
Format                                   : ASS
Codec ID                                 : S_TEXT/ASS
Codec ID/Info                            : Advanced Sub Station Alpha
Duration                                 : 1 h 23 min
Bit rate                                 : 100 b/s
Count of elements                        : 1205
Compression mode                         : Lossless
Stream size                              : 61.0 KiB (0%)
Title                                    : 简体ASS
Language                                 : Chinese
Default                                  : Yes
Forced                                   : No

Text #2
ID                                       : 5
Format                                   : ASS
Codec ID                                 : S_TEXT/ASS
Codec ID/Info                            : Advanced Sub Station Alpha
Duration                                 : 1 h 23 min
Bit rate                                 : 100 b/s
Count of elements                        : 1205
Compression mode                         : Lossless
Stream size                              : 61.0 KiB (0%)
Title                                    : 繁体ASS
Language                                 : Chinese
Default                                  : No
Forced                                   : No

Text #3
ID                                       : 6
Format                                   : UTF-8
Codec ID                                 : S_TEXT/UTF8
Codec ID/Info                            : UTF-8 Plain Text
Duration                                 : 1 h 23 min
Bit rate                                 : 41 b/s
Count of elements                        : 1206
Stream size                              : 25.3 KiB (0%)
Title                                    : 简体SRT
Language                                 : Chinese
Default                                  : No
Forced                                   : No

Text #4
ID                                       : 7
Format                                   : UTF-8
Codec ID                                 : S_TEXT/UTF8
Codec ID/Info                            : UTF-8 Plain Text
Duration                                 : 1 h 23 min
Bit rate                                 : 41 b/s
Count of elements                        : 1206
Stream size                              : 25.3 KiB (0%)
Title                                    : 繁体SRT
Language                                 : Chinese
Default                                  : No
Forced                                   : No




游客,如果您要查看本帖隐藏内容请回复,如果您想无广告、免回复、下载附件免影视币请开通VIP:VIP传送门



古哥影视论坛www.gugeys.cc 高清电影,蓝光电影,最新电影,电影天堂,影视帝国,人人影视
发表于 2020-3-22 14:08:35 | 显示全部楼层
感谢楼主分享
古哥影视论坛www.gugeys.cc 高清电影,蓝光电影,最新电影,电影天堂,影视帝国,人人影视
回复 支持 反对

使用道具 举报

发表于 2020-3-22 14:14:28 | 显示全部楼层
感谢楼主分享,楼主辛苦了
古哥影视论坛www.gugeys.cc 高清电影,蓝光电影,最新电影,电影天堂,影视帝国,人人影视
回复 支持 反对

使用道具 举报

发表于 2020-3-22 14:19:31 | 显示全部楼层
感谢分享,收藏了
古哥影视论坛www.gugeys.cc 高清电影,蓝光电影,最新电影,电影天堂,影视帝国,人人影视
回复 支持 反对

使用道具 举报

发表于 2020-3-22 14:45:18 | 显示全部楼层
感谢楼主分享,楼主辛苦了
古哥影视论坛www.gugeys.cc 高清电影,蓝光电影,最新电影,电影天堂,影视帝国,人人影视
回复 支持 反对

使用道具 举报

发表于 2020-3-22 15:26:44 | 显示全部楼层
谢谢楼主分享!
古哥影视论坛www.gugeys.cc 高清电影,蓝光电影,最新电影,电影天堂,影视帝国,人人影视
回复 支持 反对

使用道具 举报

发表于 2020-3-22 15:26:58 | 显示全部楼层
既然你诚信诚意的推荐了,那我就勉为其难的看看吧!爱电影,爱生活古哥影视不走平凡路。





......
古哥影视论坛www.gugeys.cc 高清电影,蓝光电影,最新电影,电影天堂,影视帝国,人人影视
回复 支持 反对

使用道具 举报

发表于 2020-3-22 15:34:51 | 显示全部楼层
感谢楼主分享
古哥影视论坛www.gugeys.cc 高清电影,蓝光电影,最新电影,电影天堂,影视帝国,人人影视
回复 支持 反对

使用道具 举报

发表于 2020-3-22 15:58:47 | 显示全部楼层

这个帖子不回对不起自己!我想我是一天也不能离开古哥影视
古哥影视论坛www.gugeys.cc 高清电影,蓝光电影,最新电影,电影天堂,影视帝国,人人影视
回复 支持 反对

使用道具 举报

发表于 2020-3-22 16:55:49 | 显示全部楼层
楼主发贴辛苦了,谢谢楼主分享!我觉得古哥影视的电影是最值得收藏的!
古哥影视论坛www.gugeys.cc 高清电影,蓝光电影,最新电影,电影天堂,影视帝国,人人影视
回复 支持 反对

使用道具 举报

发表于 2020-3-22 17:08:22 | 显示全部楼层
非常糟糕。惠姐这是路过帮忙培训新人么?虽然没有期望超越僵尸,但整个故事实在是太烂了,惠姐以外的人就完全不知演技为何物了
古哥影视论坛www.gugeys.cc 高清电影,蓝光电影,最新电影,电影天堂,影视帝国,人人影视
回复 支持 反对

使用道具 举报

发表于 2020-3-22 17:19:11 | 显示全部楼层

这个帖子不回对不起自己!我想我是一天也不能离开古哥影视
古哥影视论坛www.gugeys.cc 高清电影,蓝光电影,最新电影,电影天堂,影视帝国,人人影视
回复 支持 反对

使用道具 举报

发表于 2020-3-22 17:20:24 | 显示全部楼层

这个帖子不回对不起自己!我想我是一天也不能离开古哥影视
古哥影视论坛www.gugeys.cc 高清电影,蓝光电影,最新电影,电影天堂,影视帝国,人人影视
回复 支持 反对

使用道具 举报

发表于 2020-3-22 17:21:06 | 显示全部楼层

这个帖子不回对不起自己!我想我是一天也不能离开古哥影视
古哥影视论坛www.gugeys.cc 高清电影,蓝光电影,最新电影,电影天堂,影视帝国,人人影视
回复 支持 反对

使用道具 举报

发表于 2020-3-22 17:23:44 | 显示全部楼层
评分有点低
古哥影视论坛www.gugeys.cc 高清电影,蓝光电影,最新电影,电影天堂,影视帝国,人人影视
回复 支持 反对

使用道具 举报

发表于 2020-3-22 17:46:22 | 显示全部楼层
感谢楼主分享!永远支持古哥影视
古哥影视论坛www.gugeys.cc 高清电影,蓝光电影,最新电影,电影天堂,影视帝国,人人影视
回复 支持 反对

使用道具 举报

发表于 2020-3-22 17:47:41 | 显示全部楼层

这个帖子不回对不起自己!我想我是一天也不能离开古哥影视
古哥影视论坛www.gugeys.cc 高清电影,蓝光电影,最新电影,电影天堂,影视帝国,人人影视
回复 支持 反对

使用道具 举报

发表于 2020-3-22 17:52:36 | 显示全部楼层
楼主发贴辛苦了,谢谢楼主分享!我觉得古哥影视的电影是最值得收藏的!
古哥影视论坛www.gugeys.cc 高清电影,蓝光电影,最新电影,电影天堂,影视帝国,人人影视
回复 支持 反对

使用道具 举报

发表于 2020-3-22 17:53:04 | 显示全部楼层
楼主发贴辛苦了,谢谢楼主分享!我觉得古哥影视的电影是最值得收藏的!
古哥影视论坛www.gugeys.cc 高清电影,蓝光电影,最新电影,电影天堂,影视帝国,人人影视
回复 支持 反对

使用道具 举报

懒得打字嘛,点击右侧快捷回复->
您需要登录后才可以回帖 登录 | 注册(分享大片)

本版积分规则

影视帝国免责声明
本站提供网上学习交流和自由讨论使用,所有资源均来自互联网公开渠道,发布和个人言论并不代表本站立场,本站不负任何责任.
如发现有侵权行为,请与我们联系.我们将立刻从网站上删除,并向所有持版权者致最深歉意.
影视帝国论坛已经安全运行

QQ|小黑屋|手机版|Archiver|古哥论坛

GMT+8, 2020-4-8 07:48 , Processed in 0.208143 second(s), 21 queries , Gzip On.

Powered by Discuz! X3.4

© 2001-2017 Comsenz Inc.

快速回复 返回顶部 返回列表