古哥论坛

 找回密码
 注册(分享大片)
查看: 1732|回复: 141

[平凡的世界 2015][全56集][国语中字][WEB-MP4][1080P][LeTV]

  [复制链接]
发表于 2019-10-27 22:36:38 | 显示全部楼层 |阅读模式
4K天堂
本帖最后由 hkouun 于 2019-10-29 20:26 编辑


◎译  名 TheOrdinaryWorld
◎片  名 平凡的世界
◎年  代 2015
◎国  家 中国大陆
◎类  别 剧情/爱情
◎语  言 汉语普通话
◎上映日期 2015-02-26(中国大陆)
◎豆瓣评分 8.0/10 from 11,407 users
◎豆瓣链接 https://movie.douban.com/subject/25851665/
◎集  数 56
◎片  长 45分钟
◎导  演 毛卫宁 Weining Mao
◎主  演 佟丽娅 Liya Tong
      袁弘 Hong Yuan
      王雷 Lei Wang
      李小萌 Xiaomeng Li
      刘威 Wei Liu
      尤勇 Yong You
      张浩天 Haotian Zhang
      吕一 Yi Lv
      尹智玄 Zhixuan Yin
      戴墨 Mo Dai
      康爱石
      辛凯 Kai Xin
      汪芦云 Luyun Wang
      鲁诺 Nuo Lu
      夏凡 Fan Xia
      陈卫 Wei Chen

◎简  介

  这个故事发生在20世纪70年代,文革的余波仍在社会各个角落震荡,无情摧毁着每个人的生活。出身贫寒的农家子弟孙少平(袁弘 饰)有着极强的自尊心,即使在好友田润生(尹智玄饰)面前也不愿展露寒酸的一面。他和地主家的女儿郝红梅(汪芦云 饰)虽然身份有着天壤之别,类似的心境则让他们彼此相知。哥哥孙少安(王雷 饰)是家里的脊梁骨,父亲的意外去世让他必须选择更加坚强,他与润生的姐姐田润叶(佟丽娅 饰)青梅竹马,互有好感,怎奈那时的爱情身不由己,有情人儿往往无法走到一起。两兄弟以各自的方式闯荡生活,经历着爱情、人生的嬗变……
  本片根据路遥的同名小说改编。

General
Complete name                  : K:\LieYingDownloads\The.Ordinary.World.Complete.WEB-DL.1080P.H264.AAC-LeTV\The.Ordinary.World.E01.WEB-DL.1080P.H264.AAC-LeTV.mp4
Format                         : MPEG-4
Format profile                 : Base Media
Codec ID                       : isom (isom/iso2/avc1/mp41)
File size                      : 1 008 MiB
Duration                       : 44 min
Overall bit rate mode          : Variable
Overall bit rate               : 3 134 kb/s
Writing application            : Lavf57.25.100

Video
ID                             : 1
Format                         : AVC
Format/Info                    : Advanced Video Codec
Format profile                 : [email protected]
Format settings, CABAC         : Yes
Format settings, ReFrames      : 4 frames
Codec ID                       : avc1
Codec ID/Info                  : Advanced Video Coding
Duration                       : 44 min
Bit rate                       : 2 999 kb/s
Width                          : 1 280 pixels
Original width                 : 1 920 pixels
Height                         : 720 pixels
Original height                : 1 072 pixels
Display aspect ratio           : 16:9
Original display aspect ratio  : 16:9
Frame rate mode                : Variable
Frame rate                     : 25.000 FPS
Minimum frame rate             : 25.000 FPS
Maximum frame rate             : 90 000.000 FPS
Color space                    : YUV
Chroma subsampling             : 4:2:0
Bit depth                      : 8 bits
Scan type                      : Progressive
Bits/(Pixel*Frame)             : 0.130
Stream size                    : 964 MiB (96%)
Writing library                : H.264/MPEG-4 AVC codec -V 1.6.09-20151125
Color range                    : Limited
Color primaries                : BT.709
Transfer characteristics       : BT.709
Matrix coefficients            : BT.709

Audio
ID                             : 2
Format                         : AAC
Format/Info                    : Advanced Audio Codec
Format profile                 : LC
Codec ID                       : 40
Duration                       : 44 min
Bit rate mode                  : Variable
Bit rate                       : 128 kb/s
Maximum bit rate               : 133 kb/s
Channel(s)                     : 2 channels
Channel positions              : Front: L R
Sampling rate                  : 44.1 kHz
Frame rate                     : 43.066 FPS (1024 spf)
Compression mode               : Lossy
Stream size                    : 41.2 MiB (4%)
Default                        : Yes
Alternate group                : 1
第02集.mp4_1572186565230.png 第02集.mp4_1572186546069.png 第02集.mp4_1572186572942.png 第02集.mp4_1572186606835.png


百度网盘链接:https://pan.baidu.com/s/1tMoVzi27mC5bedRTiR5SRQ
游客,如果您要查看本帖隐藏内容请回复,如果您想无广告、免回复、下载附件免影视币请开通VIP:VIP传送门


古哥影视论坛www.gugeys.cc 高清电影,蓝光电影,最新电影,电影天堂,影视帝国,人人影视
发表于 2019-10-27 22:52:46 | 显示全部楼层

这个帖子不回对不起自己!我想我是一天也不能离开古哥影视
古哥影视论坛www.gugeys.cc 高清电影,蓝光电影,最新电影,电影天堂,影视帝国,人人影视
回复 支持 反对

使用道具 举报

发表于 2019-10-28 00:01:35 | 显示全部楼层
这个故事发生在20世纪70年代,文革的余波仍在社会各个角落震荡,无情摧毁着每个人的生活。出身贫寒的农家子弟孙少平(袁弘 饰)有着极强的自尊心,即使在好友田润生(尹智玄饰)面前也不愿展露寒酸的一面。他和地主家的女儿郝红梅(汪芦云 饰)虽然身份有着天壤之别,类似的心境则让他们彼此相知。哥哥孙少安(王雷 饰)是家里的脊梁骨,父亲的意外去世让他必须选择更加坚强,他与润生的姐姐田润叶(佟丽娅 饰)青梅竹马,互有好感,怎奈那时的爱情身不由己,有情人儿往往无法走到一起。两兄弟以各自的方式闯荡生活,经历着爱情、人生的嬗变……
  本片根据路遥的同名小说改编。
古哥影视论坛www.gugeys.cc 高清电影,蓝光电影,最新电影,电影天堂,影视帝国,人人影视
回复 支持 反对

使用道具 举报

发表于 2019-10-28 00:11:44 | 显示全部楼层
感谢楼主的分享啊!
古哥影视论坛www.gugeys.cc 高清电影,蓝光电影,最新电影,电影天堂,影视帝国,人人影视
回复 支持 反对

使用道具 举报

发表于 2019-10-28 00:14:02 | 显示全部楼层
度盘里只有6集啊……
古哥影视论坛www.gugeys.cc 高清电影,蓝光电影,最新电影,电影天堂,影视帝国,人人影视
回复 支持 反对

使用道具 举报

发表于 2019-10-28 00:25:20 | 显示全部楼层
本片根据路遥的同名小说改编。
古哥影视论坛www.gugeys.cc 高清电影,蓝光电影,最新电影,电影天堂,影视帝国,人人影视
回复 支持 反对

使用道具 举报

发表于 2019-10-28 02:01:27 | 显示全部楼层

既然你诚信诚意的推荐了,那我就勉为其难的看看吧!爱电影,爱生活古哥影视不走平凡路。
古哥影视论坛www.gugeys.cc 高清电影,蓝光电影,最新电影,电影天堂,影视帝国,人人影视
回复 支持 反对

使用道具 举报

发表于 2019-10-28 02:02:04 | 显示全部楼层
只差一步 发表于 2019-10-28 00:01
这个故事发生在20世纪70年代,文革的余波仍在社会各个角落震荡,无情摧毁着每个人的生活。出身贫寒的农家子 ...

其实快捷回复挺好用的,还不会被扣分。
古哥影视论坛www.gugeys.cc 高清电影,蓝光电影,最新电影,电影天堂,影视帝国,人人影视
回复 支持 反对

使用道具 举报

发表于 2019-10-28 07:33:49 | 显示全部楼层
谢谢版主无私分享经典国产连续剧!
古哥影视论坛www.gugeys.cc 高清电影,蓝光电影,最新电影,电影天堂,影视帝国,人人影视
回复 支持 反对

使用道具 举报

发表于 2019-10-28 07:57:01 | 显示全部楼层
谢谢楼主的分享
古哥影视论坛www.gugeys.cc 高清电影,蓝光电影,最新电影,电影天堂,影视帝国,人人影视
回复 支持 反对

使用道具 举报

发表于 2019-10-28 08:31:25 | 显示全部楼层
楼主发贴辛苦了,谢谢楼主分享!我觉得古哥影视的电影是最值得收藏的!
古哥影视论坛www.gugeys.cc 高清电影,蓝光电影,最新电影,电影天堂,影视帝国,人人影视
回复 支持 反对

使用道具 举报

发表于 2019-10-28 08:47:16 | 显示全部楼层
输入密码没反应
古哥影视论坛www.gugeys.cc 高清电影,蓝光电影,最新电影,电影天堂,影视帝国,人人影视
回复 支持 反对

使用道具 举报

发表于 2019-10-28 09:43:00 | 显示全部楼层

这个帖子不回对不起自己!我想我是一天也不能离开古哥影视
古哥影视论坛www.gugeys.cc 高清电影,蓝光电影,最新电影,电影天堂,影视帝国,人人影视
回复 支持 反对

使用道具 举报

发表于 2019-10-28 10:01:09 | 显示全部楼层

感谢楼主的无私分享!要想古哥影视好,就靠你我他!
古哥影视论坛www.gugeys.cc 高清电影,蓝光电影,最新电影,电影天堂,影视帝国,人人影视
回复 支持 反对

使用道具 举报

发表于 2019-10-28 10:38:53 | 显示全部楼层
多谢楼主分享,支持经典
古哥影视论坛www.gugeys.cc 高清电影,蓝光电影,最新电影,电影天堂,影视帝国,人人影视
回复 支持 反对

使用道具 举报

发表于 2019-10-28 11:04:09 | 显示全部楼层

多谢楼主分享,支持经典
古哥影视论坛www.gugeys.cc 高清电影,蓝光电影,最新电影,电影天堂,影视帝国,人人影视
回复 支持 反对

使用道具 举报

懒得打字嘛,点击右侧快捷回复->
您需要登录后才可以回帖 登录 | 注册(分享大片)

本版积分规则

影视帝国免责声明
本站提供网上学习交流和自由讨论使用,所有资源均来自互联网公开渠道,发布和个人言论并不代表本站立场,本站不负任何责任.
如发现有侵权行为,请与我们联系.我们将立刻从网站上删除,并向所有持版权者致最深歉意.
影视帝国论坛已经安全运行

QQ|小黑屋|手机版|Archiver|古哥论坛

GMT+8, 2019-12-16 04:39 , Processed in 0.200396 second(s), 19 queries , Gzip On.

Powered by Discuz! X3.4

© 2001-2017 Comsenz Inc.

快速回复 返回顶部 返回列表