古哥论坛

 找回密码
 注册(分享大片)
查看: 1093|回复: 39

[1080P] [鲨海逃生]47.Meters.Down.Uncaged.2019.1080p.BluRay.x264-GECKOS 6.56GB

[复制链接]
发表于 2019-11-3 23:07:05 | 显示全部楼层 |阅读模式
4K天堂


◎译  名 鲨海逃生 / 47 Meters Down: The Next Chapter / 48 Meters Down / 鲨海2 / 鲨海47米:狂鲨出笼 (港) / 鲨海47:猛鲨出笼
◎片  名 47 Meters Down: Uncaged
◎年  代 2019
◎产  地 英国
◎类  别 剧情 / 惊悚 / 恐怖 / 冒险
◎语  言 英语
◎上映日期 2019-08-16(美国)
◎IMDb评分 5.1/10 from 3402 users
◎IMDb链接 https://www.imdb.com/title/tt7329656
◎豆瓣评分 6.2/10 from 209 users
◎蓝光高清   http://www.4ktt.com
◎片  长 89分钟
◎导  演 约翰内斯·罗伯茨 Johannes Roberts
◎编  剧 欧内斯特·里埃拉 Ernest Riera / 约翰内斯·罗伯茨 Johannes Roberts
◎主  演 尼娅·朗 Nia Long
      约翰·考伯特 John Corbett
      苏菲·奈丽丝 Sophie Nélisse
      科琳·福克斯 Corinne Foxx
      戴维·桑托斯 Davi Santos
      布芮妮·邱 Brianne Tju
      希斯蒂妮·史泰龙 Sistine Rose Stallone
      Khylin Rhambo

◎简  介
  《鲨海47:猛鲨出笼》(47 Meters Down-Uncaged),演员阵容:史泰龙女儿Sistine Stallone和福克斯的女儿Corinne Foxx献出表演首秀,John Corbett(《欲望都市》)、Nia Long(《嘻哈帝国》)、Sophie Nelisse(《偷书贼》)、Brianne Tju(剧版《惊声尖叫》)、Davi Santos(《宝丽来》)、Khylin Rhambo(《少狼》)也出演,定档2019年6月28日北美上映。
  讲述4个青少年潜水进入了一个失落的水下城市,随后在城里的迷宫一般的幽闭水下洞穴中,他们陷入极其恐怖的境地——嗜血鲨鱼的领地。导演Johannes Roberts回归,本周在多米尼加开拍。

Video
ID : 1
Format : AVC
Format/Info : Advanced Video Codec
Format profile : [email protected]
Format settings : CABAC / 5 Ref Frames
Format settings, CABAC : Yes
Format settings, Reference frames : 5 frames
Codec ID : V_MPEG4/ISO/AVC
Duration : 1 h 30 min
Bit rate : 8 912 kb/s
Width : 1 920 pixels
Height : 808 pixels
Display aspect ratio : 2.40:1
Frame rate mode : Constant
Frame rate : 23.976 (24000/1001) FPS
Color space : YUV
Chroma subsampling : 4:2:0
Bit depth : 8 bits
Scan type : Progressive
Bits/(Pixel*Frame) : 0.240
Stream size : 5.60 GiB (85%)
Writing library : x264 core 158 r2984 3759fcb
Encoding settings : cabac=1 / ref=5 / deblock=1:-3:-3 / analyse=0x3:0x113 / me=umh / subme=8 / psy=1 / psy_rd=1.00:0.00 / mixed_ref=1 / me_range=16 / chroma_me=1 / trellis=1 / 8x8dct=1 / cqm=0 / deadzone=21,11 / fast_pskip=1 / chroma_qp_offset=-2 / threads=25 / lookahead_threads=4 / sliced_threads=0 / nr=0 / decimate=1 / interlaced=0 / bluray_compat=0 / constrained_intra=0 / bframes=3 / b_pyramid=2 / b_adapt=1 / b_bias=0 / direct=3 / weightb=1 / open_gop=0 / weightp=2 / keyint=250 / keyint_min=23 / scenecut=40 / intra_refresh=0 / rc_lookahead=50 / rc=2pass / mbtree=1 / bitrate=8912 / ratetol=1.0 / qcomp=0.60 / qpmin=0 / qpmax=69 / qpstep=4 / cplxblur=20.0 / qblur=0.5 / ip_ratio=1.40 / aq=1:1.00
Language : English
Default : Yes
Forced : No

Audio
ID : 2
Format : DTS
Format/Info : Digital Theater Systems
Codec ID : A_DTS
Duration : 1 h 30 min
Bit rate mode : Constant
Bit rate : 1 509 kb/s
Channel(s) : 6 channels
Channel layout : C L R Ls Rs LFE
Sampling rate : 48.0 kHz
Frame rate : 93.750 FPS (512 SPF)
Bit depth : 24 bits
Compression mode : Lossy
Stream size : 972 MiB (14%)
Language : English
Default : Yes
Forced : No





47.Meters.Down.Uncaged.2019.1080p.BluRay.x264-GECKOS.torrent (33.7 KB, 下载次数: 199)
提示:如迅雷下载提示"任务出错"、"因版权无法下载",请更换【迅雷5】,提取码: ai7u
古哥影视论坛www.gugeys.cc 高清电影,蓝光电影,最新电影,电影天堂,影视帝国,人人影视
提示:如迅雷下载提示"任务出错"、"因版权无法下载",请更换【迅雷5】,提取码: ai7u
发表于 2019-11-4 01:10:52 | 显示全部楼层
感谢分享,下载了
古哥影视论坛www.gugeys.cc 高清电影,蓝光电影,最新电影,电影天堂,影视帝国,人人影视
回复 支持 反对

使用道具 举报

发表于 2019-11-4 02:12:07 | 显示全部楼层

论坛不能没有像楼主这样的人才啊!我会一直支持古哥影视的版主和管理员,这么多年,电影看得太过瘾了。
古哥影视论坛www.gugeys.cc 高清电影,蓝光电影,最新电影,电影天堂,影视帝国,人人影视
回复 支持 反对

使用道具 举报

发表于 2019-11-4 08:40:30 | 显示全部楼层
感谢楼主分享!
古哥影视论坛www.gugeys.cc 高清电影,蓝光电影,最新电影,电影天堂,影视帝国,人人影视
回复 支持 反对

使用道具 举报

发表于 2019-11-4 08:59:02 | 显示全部楼层
楼主发贴辛苦了,谢谢楼主分享!我觉得古哥影视的电影是最值得收藏的!
古哥影视论坛www.gugeys.cc 高清电影,蓝光电影,最新电影,电影天堂,影视帝国,人人影视
回复 支持 反对

使用道具 举报

发表于 2019-11-4 09:02:00 | 显示全部楼层
楼主发贴辛苦了,谢谢楼主分享!我觉得古哥影视的电影是最值得收藏的!
古哥影视论坛www.gugeys.cc 高清电影,蓝光电影,最新电影,电影天堂,影视帝国,人人影视
回复 支持 反对

使用道具 举报

发表于 2019-11-4 09:47:07 | 显示全部楼层

这个帖子不回对不起自己!我想我是一天也不能离开古哥影视
古哥影视论坛www.gugeys.cc 高清电影,蓝光电影,最新电影,电影天堂,影视帝国,人人影视
回复 支持 反对

使用道具 举报

发表于 2019-11-4 10:39:37 | 显示全部楼层
楼主发贴辛苦了,谢谢楼主分享!我觉得古哥影视的电影是最值得收藏的!
古哥影视论坛www.gugeys.cc 高清电影,蓝光电影,最新电影,电影天堂,影视帝国,人人影视
回复 支持 反对

使用道具 举报

发表于 2019-11-4 10:51:45 | 显示全部楼层
是不是以前的《大白鲨》??
古哥影视论坛www.gugeys.cc 高清电影,蓝光电影,最新电影,电影天堂,影视帝国,人人影视
回复 支持 反对

使用道具 举报

发表于 2019-11-4 11:03:24 | 显示全部楼层
楼主发贴辛苦了,谢谢楼主分享!
古哥影视论坛www.gugeys.cc 高清电影,蓝光电影,最新电影,电影天堂,影视帝国,人人影视
回复 支持 反对

使用道具 举报

发表于 2019-11-4 17:28:06 | 显示全部楼层
楼主发贴辛苦了,谢谢楼主分享!我觉得古哥影视的电影是最值得收藏的!
古哥影视论坛www.gugeys.cc 高清电影,蓝光电影,最新电影,电影天堂,影视帝国,人人影视
回复 支持 反对

使用道具 举报

发表于 2019-11-4 18:13:19 | 显示全部楼层
感谢楼主分享!永远支持古哥影视
古哥影视论坛www.gugeys.cc 高清电影,蓝光电影,最新电影,电影天堂,影视帝国,人人影视
回复 支持 反对

使用道具 举报

发表于 2019-11-4 18:37:22 | 显示全部楼层
感谢楼主分享!
古哥影视论坛www.gugeys.cc 高清电影,蓝光电影,最新电影,电影天堂,影视帝国,人人影视
回复 支持 反对

使用道具 举报

发表于 2019-11-4 19:39:54 | 显示全部楼层

楼主太厉害了!楼主,I*老*虎*U!古哥影视绝对是电影爱好的天堂!
古哥影视论坛www.gugeys.cc 高清电影,蓝光电影,最新电影,电影天堂,影视帝国,人人影视
回复 支持 反对

使用道具 举报

发表于 2019-11-4 19:41:10 | 显示全部楼层

这个帖子不回对不起自己!我想我是一天也不能离开古哥影视
古哥影视论坛www.gugeys.cc 高清电影,蓝光电影,最新电影,电影天堂,影视帝国,人人影视
回复 支持 反对

使用道具 举报

发表于 2019-11-4 19:53:27 | 显示全部楼层

这个帖子不回对不起自己!我想我是一天也不能离开古哥影视
古哥影视论坛www.gugeys.cc 高清电影,蓝光电影,最新电影,电影天堂,影视帝国,人人影视
回复 支持 反对

使用道具 举报

发表于 2019-11-4 21:44:49 | 显示全部楼层

感谢楼主的无私分享!要想古哥影视好,就靠你我他!
古哥影视论坛www.gugeys.cc 高清电影,蓝光电影,最新电影,电影天堂,影视帝国,人人影视
回复 支持 反对

使用道具 举报

发表于 2019-11-4 23:31:18 | 显示全部楼层

楼主太厉害了!楼主,I*老*虎*U!古哥影视绝对是电影爱好的天堂!
古哥影视论坛www.gugeys.cc 高清电影,蓝光电影,最新电影,电影天堂,影视帝国,人人影视
回复 支持 反对

使用道具 举报

发表于 2019-11-5 08:55:48 | 显示全部楼层

楼主太厉害了!楼主,I*老*虎*U!古哥影视绝对是电影爱好的天堂!
古哥影视论坛www.gugeys.cc 高清电影,蓝光电影,最新电影,电影天堂,影视帝国,人人影视
回复 支持 反对

使用道具 举报

发表于 2019-11-5 10:02:02 | 显示全部楼层

楼主太厉害了!楼主,I*老*虎*U!古哥影视绝对是电影爱好的天堂!
古哥影视论坛www.gugeys.cc 高清电影,蓝光电影,最新电影,电影天堂,影视帝国,人人影视
回复 支持 反对

使用道具 举报

懒得打字嘛,点击右侧快捷回复->
您需要登录后才可以回帖 登录 | 注册(分享大片)

本版积分规则

影视帝国免责声明
本站提供网上学习交流和自由讨论使用,所有资源均来自互联网公开渠道,发布和个人言论并不代表本站立场,本站不负任何责任.
如发现有侵权行为,请与我们联系.我们将立刻从网站上删除,并向所有持版权者致最深歉意.
影视帝国论坛已经安全运行

QQ|小黑屋|手机版|Archiver|古哥论坛

GMT+8, 2019-11-19 07:54 , Processed in 0.204909 second(s), 20 queries , Gzip On.

Powered by Discuz! X3.4

© 2001-2017 Comsenz Inc.

快速回复 返回顶部 返回列表