古哥论坛

 找回密码
 注册(分享大片)
查看: 1155|回复: 91

[1080P] [好小子们/好小子]Good.Boys.2019.1080p.BluRay.x264-DRONES 外挂中英字幕/6.57GB

[复制链接]
发表于 2019-11-3 23:15:26 | 显示全部楼层 |阅读模式
4K天堂


◎译  名 好小子们 / 好小子 / 好小男孩(台) / 好男孩 / 好男孩们 / 曳曳同学会(港)
◎片  名 Good Boys
◎年  代 2019
◎产  地 美国
◎类  别 喜剧 / 冒险
◎语  言 英语
◎上映日期 2019-08-16(美国)
◎IMDb评分 6.8/10 from 16367 users
◎IMDb链接 https://www.imdb.com/title/tt7343762
◎豆瓣评分 7.5/10 from 1005 users
◎蓝光高清   http://www.4ktt.com
◎片  长 90分钟
◎导  演 吉恩·斯图普尼兹基 Gene Stupnitsky
◎编  剧 李·艾森伯格 Lee Eisenberg / 吉恩·斯图普尼兹基 Gene Stupnitsky
◎主  演 雅各布·特伦布莱 Jacob Tremblay
      基思·L·威廉姆斯 Keith L. Williams
      布雷迪·诺恩 Brady Noon
      莫莉·戈登 Molly Gordon
      米多莉·弗朗西斯 Midori Francis
      米莉·戴维斯 Millie Davis
      乔希·卡拉斯 Josh Caras
      威尔·福特 Will Forte
      里尔·莱尔·哈瓦瑞 Lil Rel Howery
      瑞塔 Retta
      麦可拉·沃金丝 Michaela Watkins
      钱斯·赫斯菲尔德 Chance Hurstfield
      伊妮德·雷伊·亚当斯 Enid-Raye Adams
      克雷格·哈斯 Craig Haas
      山姆·理查森 Sam Richardson
      贝妮塔·夏 Benita Ha
      亚历山大·卡尔弗特 Alexander Calvert
      玛雅·斯泰斯-史密斯 Maja Stace-Smith
      马特·埃利斯 Matt Ellis
      玛莉·格雷斯·贝克尔 Marlee Grace Becker
      丽娜·伦纳 Lina Renna
      奥黛丽·斯莫尔曼 Audrey Smallman
      保罗·贝克 Paul Becker
      李·艾森伯格 Lee Eisenberg

◎简  介
  影片围绕着四个12岁叛逆男孩展开,他们想要在父母回家前从洛杉矶郊区前往市中心换掉被摔坏的无人机。

Video
ID : 1
Format : AVC
Format/Info : Advanced Video Codec
Format profile : [email protected]
Format settings : CABAC / 5 Ref Frames
Format settings, CABAC : Yes
Format settings, Reference frames : 5 frames
Codec ID : V_MPEG4/ISO/AVC
Duration : 1 h 29 min
Bit rate : 8 965 kb/s
Width : 1 920 pixels
Height : 808 pixels
Display aspect ratio : 2.40:1
Frame rate mode : Constant
Frame rate : 23.976 (24000/1001) FPS
Color space : YUV
Chroma subsampling : 4:2:0
Bit depth : 8 bits
Scan type : Progressive
Bits/(Pixel*Frame) : 0.241
Stream size : 5.61 GiB (86%)
Writing library : x264 core 158 r2984 3759fcb
Encoding settings : cabac=1 / ref=5 / deblock=1:-3:-3 / analyse=0x3:0x113 / me=umh / subme=8 / psy=1 / psy_rd=1.00:0.00 / mixed_ref=1 / me_range=16 / chroma_me=1 / trellis=1 / 8x8dct=1 / cqm=0 / deadzone=21,11 / fast_pskip=1 / chroma_qp_offset=-2 / threads=25 / lookahead_threads=4 / sliced_threads=0 / nr=0 / decimate=1 / interlaced=0 / bluray_compat=0 / constrained_intra=0 / bframes=3 / b_pyramid=2 / b_adapt=1 / b_bias=0 / direct=3 / weightb=1 / open_gop=0 / weightp=2 / keyint=250 / keyint_min=23 / scenecut=40 / intra_refresh=0 / rc_lookahead=50 / rc=2pass / mbtree=1 / bitrate=8965 / ratetol=1.0 / qcomp=0.60 / qpmin=0 / qpmax=69 / qpstep=4 / cplxblur=20.0 / qblur=0.5 / ip_ratio=1.40 / aq=1:1.00
Language : English
Default : Yes
Forced : No

Audio
ID : 2
Format : DTS
Format/Info : Digital Theater Systems
Codec ID : A_DTS
Duration : 1 h 29 min
Bit rate mode : Constant
Bit rate : 1 509 kb/s
Channel(s) : 6 channels
Channel layout : C L R Ls Rs LFE
Sampling rate : 48.0 kHz
Frame rate : 93.750 FPS (512 SPF)
Bit depth : 24 bits
Compression mode : Lossy
Stream size : 967 MiB (14%)
Language : English
Default : Yes
Forced : No

Menu
00:00:00.000 : en:00:00:00.000
00:03:54.025 : en:00:03:54.025
00:09:00.165 : en:00:09:00.165
00:11:51.169 : en:00:11:51.169
00:15:08.658 : en:00:15:08.658
00:17:29.840 : en:00:17:29.840
00:21:20.696 : en:00:21:20.696
00:27:27.646 : en:00:27:27.646
00:31:25.675 : en:00:31:25.675
00:35:06.104 : en:00:35:06.104
00:40:11.868 : en:00:40:11.868
00:47:16.208 : en:00:47:16.208
00:51:01.183 : en:00:51:01.183
00:57:54.388 : en:00:57:54.388
01:02:27.953 : en:01:02:27.953
01:06:46.544 : en:01:06:46.544
01:09:56.901 : en:01:09:56.901
01:14:19.497 : en:01:14:19.497
01:20:00.796 : en:01:20:00.796
01:23:35.427 : en:01:23:35.427





游客,如果您要查看本帖隐藏内容请回复,如果您想无广告、免回复、下载附件免影视币请开通VIP:VIP传送门



[好小子们/好小子]Good.Boys.2019.BluRay.蓝光版中英文字幕包
http://www.4ktt.com/thread-47996-1-1.html
(出处: 4K天堂)


提示:如迅雷下载提示"任务出错"、"因版权无法下载",请更换【迅雷5】,提取码: ai7u
古哥影视论坛www.gugeys.cc 高清电影,蓝光电影,最新电影,电影天堂,影视帝国,人人影视
提示:如迅雷下载提示"任务出错"、"因版权无法下载",请更换【迅雷5】,提取码: ai7u
发表于 2019-11-3 23:29:23 | 显示全部楼层
谢谢楼主分享
古哥影视论坛www.gugeys.cc 高清电影,蓝光电影,最新电影,电影天堂,影视帝国,人人影视
回复 支持 反对

使用道具 举报

发表于 2019-11-3 23:58:02 | 显示全部楼层
[好小子们/好小子]Good.Boys.2019.1080p.BluRay.x264-DRONES 外挂中英字幕/6.57GB [修改]
古哥影视论坛www.gugeys.cc 高清电影,蓝光电影,最新电影,电影天堂,影视帝国,人人影视
回复 支持 反对

使用道具 举报

发表于 2019-11-4 00:10:00 | 显示全部楼层
感谢楼主的分享啊!
古哥影视论坛www.gugeys.cc 高清电影,蓝光电影,最新电影,电影天堂,影视帝国,人人影视
回复 支持 反对

使用道具 举报

发表于 2019-11-4 00:18:23 | 显示全部楼层
谢谢楼主分享
古哥影视论坛www.gugeys.cc 高清电影,蓝光电影,最新电影,电影天堂,影视帝国,人人影视
回复 支持 反对

使用道具 举报

发表于 2019-11-4 00:27:54 | 显示全部楼层
感觉还是很不错的!喜剧电影我还是非常喜欢的,多谢LZ分享了!
古哥影视论坛www.gugeys.cc 高清电影,蓝光电影,最新电影,电影天堂,影视帝国,人人影视
回复 支持 反对

使用道具 举报

发表于 2019-11-4 01:07:53 | 显示全部楼层
多谢分享,下载下载
古哥影视论坛www.gugeys.cc 高清电影,蓝光电影,最新电影,电影天堂,影视帝国,人人影视
回复 支持 反对

使用道具 举报

发表于 2019-11-4 01:47:20 | 显示全部楼层
非常感谢非常感谢
古哥影视论坛www.gugeys.cc 高清电影,蓝光电影,最新电影,电影天堂,影视帝国,人人影视
回复 支持 反对

使用道具 举报

发表于 2019-11-4 01:49:14 | 显示全部楼层
非常感谢非常感谢
古哥影视论坛www.gugeys.cc 高清电影,蓝光电影,最新电影,电影天堂,影视帝国,人人影视
回复 支持 反对

使用道具 举报

发表于 2019-11-4 01:50:02 | 显示全部楼层
rickxu 发表于 2019-11-4 01:49
非常感谢非常感谢

非常感谢非常感谢
古哥影视论坛www.gugeys.cc 高清电影,蓝光电影,最新电影,电影天堂,影视帝国,人人影视
回复 支持 反对

使用道具 举报

发表于 2019-11-4 02:14:33 | 显示全部楼层

楼主太厉害了!楼主,I*老*虎*U!古哥影视绝对是电影爱好的天堂!
古哥影视论坛www.gugeys.cc 高清电影,蓝光电影,最新电影,电影天堂,影视帝国,人人影视
回复 支持 反对

使用道具 举报

发表于 2019-11-4 07:40:27 | 显示全部楼层
为什么现在要币那么多了,不回复都没钱了
古哥影视论坛www.gugeys.cc 高清电影,蓝光电影,最新电影,电影天堂,影视帝国,人人影视
回复 支持 反对

使用道具 举报

发表于 2019-11-4 07:49:07 | 显示全部楼层
美国不靠谱的电影还是可以看的
古哥影视论坛www.gugeys.cc 高清电影,蓝光电影,最新电影,电影天堂,影视帝国,人人影视
回复 支持 反对

使用道具 举报

发表于 2019-11-4 07:57:31 | 显示全部楼层

这个帖子不回对不起自己!我想我是一天也不能离开古哥影视
古哥影视论坛www.gugeys.cc 高清电影,蓝光电影,最新电影,电影天堂,影视帝国,人人影视
回复 支持 反对

使用道具 举报

发表于 2019-11-4 08:11:19 | 显示全部楼层

楼主太厉害了!楼主,I*老*虎*U!古哥影视绝对是电影爱好的天堂!
古哥影视论坛www.gugeys.cc 高清电影,蓝光电影,最新电影,电影天堂,影视帝国,人人影视
回复 支持 反对

使用道具 举报

发表于 2019-11-4 08:17:00 | 显示全部楼层
好小子们好小子们好小子们好小子们好小子们好小子们好小子们好小子们
古哥影视论坛www.gugeys.cc 高清电影,蓝光电影,最新电影,电影天堂,影视帝国,人人影视
回复 支持 反对

使用道具 举报

发表于 2019-11-4 08:21:50 | 显示全部楼层
楼主发贴辛苦了,谢谢楼主分享!我觉得古哥影视的电影是最值得收藏的!
古哥影视论坛www.gugeys.cc 高清电影,蓝光电影,最新电影,电影天堂,影视帝国,人人影视
回复 支持 反对

使用道具 举报

发表于 2019-11-4 08:32:36 | 显示全部楼层
楼主发贴辛苦了,谢谢楼主分享!我觉得古哥影视的电影是最值得收藏的!
古哥影视论坛www.gugeys.cc 高清电影,蓝光电影,最新电影,电影天堂,影视帝国,人人影视
回复 支持 反对

使用道具 举报

发表于 2019-11-4 08:54:14 | 显示全部楼层
楼主发贴辛苦了,谢谢楼主分享!我觉得古哥影视的电影是最值得收藏的!
古哥影视论坛www.gugeys.cc 高清电影,蓝光电影,最新电影,电影天堂,影视帝国,人人影视
回复 支持 反对

使用道具 举报

发表于 2019-11-4 09:01:22 | 显示全部楼层

楼主太厉害了!楼主,I*老*虎*U!古哥影视绝对是电影爱好的天堂!
古哥影视论坛www.gugeys.cc 高清电影,蓝光电影,最新电影,电影天堂,影视帝国,人人影视
回复 支持 反对

使用道具 举报

懒得打字嘛,点击右侧快捷回复->
您需要登录后才可以回帖 登录 | 注册(分享大片)

本版积分规则

影视帝国免责声明
本站提供网上学习交流和自由讨论使用,所有资源均来自互联网公开渠道,发布和个人言论并不代表本站立场,本站不负任何责任.
如发现有侵权行为,请与我们联系.我们将立刻从网站上删除,并向所有持版权者致最深歉意.
影视帝国论坛已经安全运行

QQ|小黑屋|手机版|Archiver|古哥论坛

GMT+8, 2019-11-12 05:55 , Processed in 0.234418 second(s), 20 queries , Gzip On.

Powered by Discuz! X3.4

© 2001-2017 Comsenz Inc.

快速回复 返回顶部 返回列表