古哥论坛

 找回密码
 注册(分享大片)
查看: 191|回复: 12

[花生酱猎鹰]2019.1080p.BluRay.REMUX.AVC.DTS-HD.MA.5.1-FGT 18.08GB

[复制链接]
发表于 4 天前 | 显示全部楼层 |阅读模式
4K天堂


◎译  名 花生酱猎鹰 / 花生酱猎鹰的愿望(台)
◎片  名 The Peanut Butter Falcon
◎年  代 2019
◎产  地 美国
◎类  别 冒险
◎语  言 英语
◎上映日期 2019-03-09(西南偏南电影节) / 2019-08-09(美国)
◎IMDb评分 8.0/10 from 6896 users
◎IMDb链接 https://www.imdb.com/title/tt4364194
◎豆瓣评分 8.0/10 from 389 users
◎蓝光高清   http://www.4ktt.com
◎片  长 93分钟
◎导  演 泰勒·尼尔森 Tyler Nilson / 迈克·舒瓦茨 Mike Schwartz
◎编  剧 泰勒·尼尔森 Tyler Nilson / 迈克·舒瓦茨 Mike Schwartz
◎主  演 希亚·拉博夫 Shia LaBeouf
      达科塔·约翰逊 Dakota Johnson
      扎克·高察根 Zack Gottsagen
      约翰·浩克斯 John Hawkes
      托马斯·哈登·丘奇 Thomas Haden Church
      布鲁斯·邓恩 Bruce Dern
      乔·博恩瑟 Jon Bernthal
      米克·弗利 Mick Foley
      Yelawolf
      Jake Roberts
      Raquel Aurora
      Michael Berthold
      Deja Dee
      Karen B. Greer
      Noah Hein

◎简  介
  电影讲述一个唐氏患儿Zak梦想成为一名摔跤手,因此逃离疗养院想去上体校,路遇一位在逃犯,这位逃犯成为了他的教练和好友。此外来自疗养院的一名护工也加入了他们的旅程。

Video
ID : 1
Format : AVC
Format/Info : Advanced Video Codec
Format profile : [email protected]
Format settings : CABAC / 4 Ref Frames
Format settings, CABAC : Yes
Format settings, Reference frames : 4 frames
Codec ID : V_MPEG4/ISO/AVC
Duration : 1 h 36 min
Bit rate mode : Variable
Bit rate : 23.0 Mb/s
Maximum bit rate : 35.0 Mb/s
Width : 1 920 pixels
Height : 1 080 pixels
Display aspect ratio : 16:9
Frame rate mode : Constant
Frame rate : 23.976 (24000/1001) FPS
Standard : NTSC
Color space : YUV
Chroma subsampling : 4:2:0
Bit depth : 8 bits
Scan type : Progressive
Bits/(Pixel*Frame) : 0.463
Stream size : 15.6 GiB (86%)
Title : The.Peanut.Butter.Falcon.2019.1080p.BluRay.REMUX.AVC.DTS-HD.MA.5.1-FGT
Language : English
Default : No
Forced : No
Color range : Limited
Color primaries : BT.709
Transfer characteristics : BT.709
Matrix coefficients : BT.709

Audio
ID : 2
Format : DTS XLL
Format/Info : Digital Theater Systems
Commercial name : DTS-HD Master Audio
Codec ID : A_DTS
Duration : 1 h 36 min
Bit rate mode : Variable
Bit rate : 3 656 kb/s
Channel(s) : 6 channels
Channel layout : C L R Ls Rs LFE
Sampling rate : 48.0 kHz
Frame rate : 93.750 FPS (512 SPF)
Bit depth : 24 bits
Compression mode : Lossless
Stream size : 2.48 GiB (14%)
Title : The.Peanut.Butter.Falcon.2019.1080p.BluRay.REMUX.AVC.DTS-HD.MA.5.1-FGT
Language : English
Default : Yes
Forced : No

Text #1
ID : 3
Format : UTF-8
Codec ID : S_TEXT/UTF8
Codec ID/Info : UTF-8 Plain Text
Duration : 1 h 35 min
Bit rate : 67 b/s
Count of elements : 1549
Stream size : 47.0 KiB (0%)
Title : English-srt
Language : English
Default : Yes
Forced : No

Text #2
ID : 4
Format : PGS
Muxing mode : zlib
Codec ID : S_HDMV/PGS
Codec ID/Info : Picture based subtitle format used on BDs/HD-DVDs
Duration : 1 h 34 min
Bit rate : 46.3 kb/s
Count of elements : 3278
Stream size : 31.3 MiB (0%)
Title : English-PGS
Language : English
Default : No
Forced : No

Text #3
ID : 5
Format : PGS
Muxing mode : zlib
Codec ID : S_HDMV/PGS
Codec ID/Info : Picture based subtitle format used on BDs/HD-DVDs
Duration : 1 h 36 min
Bit rate : 44.4 kb/s
Count of elements : 3506
Stream size : 30.5 MiB (0%)
Title : Spanish-PGS
Language : Spanish
Default : No
Forced : No

Menu
00:00:00.000 : en:Chapter 01
00:08:14.243 : en:Chapter 02
00:17:54.073 : en:Chapter 03
00:25:26.191 : en:Chapter 04
00:32:30.949 : en:Chapter 05
00:42:37.555 : en:Chapter 06
00:50:34.906 : en:Chapter 07
00:58:02.270 : en:Chapter 08
01:04:19.856 : en:Chapter 09
01:13:20.396 : en:Chapter 10
01:21:12.617 : en:Chapter 11
01:31:09.464 : en:Chapter 12





The.Peanut.Butter.Falcon.2019.1080p.BluRay.REMUX.AVC.DTS-HD.MA.5.1-FGT.torrent (90.99 KB, 下载次数: 19)
提示:如迅雷下载提示"任务出错"、"因版权无法下载",请更换【迅雷5】,提取码: ai7u
古哥影视论坛www.gugeys.cc 高清电影,蓝光电影,最新电影,电影天堂,影视帝国,人人影视
提示:如迅雷下载提示"任务出错"、"因版权无法下载",请更换【迅雷5】,提取码: ai7u
发表于 3 天前 | 显示全部楼层
感谢分享,下载收藏
古哥影视论坛www.gugeys.cc 高清电影,蓝光电影,最新电影,电影天堂,影视帝国,人人影视
回复 支持 反对

使用道具 举报

发表于 3 天前 | 显示全部楼层


成 人 电  影【 p t 5 . m e 】
古哥影视论坛www.gugeys.cc 高清电影,蓝光电影,最新电影,电影天堂,影视帝国,人人影视
回复 支持 反对

使用道具 举报

发表于 3 天前 | 显示全部楼层

楼主太厉害了!楼主,I*老*虎*U!古哥影视绝对是电影爱好的天堂!
古哥影视论坛www.gugeys.cc 高清电影,蓝光电影,最新电影,电影天堂,影视帝国,人人影视
回复 支持 反对

使用道具 举报

发表于 3 天前 | 显示全部楼层
  
QQ7676-34-787    =出-售  桑=拿=女 按=摩=女  模=特= 外=围=女=资=料 良=家 学=生=妹=

信=息

  
QQ7676-34-787    =出-售  桑=拿=女 按=摩=女  模=特= 外=围=女=资=料 良=家 学=生=妹=

信=息

  
QQ7676-34-787    =出-售  桑=拿=女 按=摩=女  模=特= 外=围=女=资=料 良=家 学=生=妹=

信=息

  
QQ7676-34-787    =出-售  桑=拿=女 按=摩=女  模=特= 外=围=女=资=料 良=家 学=生=妹=

信=息

  
QQ7676-34-787    =出-售  桑=拿=女 按=摩=女  模=特= 外=围=女=资=料 良=家 学=生=妹=

信=息

  
QQ7676-34-787    =出-售  桑=拿=女 按=摩=女  模=特= 外=围=女=资=料 良=家 学=生=妹=

信=息

古哥影视论坛www.gugeys.cc 高清电影,蓝光电影,最新电影,电影天堂,影视帝国,人人影视
回复 支持 反对

使用道具 举报

发表于 3 天前 | 显示全部楼层

这个帖子不回对不起自己!我想我是一天也不能离开古哥影视
古哥影视论坛www.gugeys.cc 高清电影,蓝光电影,最新电影,电影天堂,影视帝国,人人影视
回复 支持 反对

使用道具 举报

发表于 3 天前 | 显示全部楼层
感谢楼主分享!永远支持古哥影视
古哥影视论坛www.gugeys.cc 高清电影,蓝光电影,最新电影,电影天堂,影视帝国,人人影视
回复 支持 反对

使用道具 举报

发表于 3 天前 | 显示全部楼层
感谢楼主分享
古哥影视论坛www.gugeys.cc 高清电影,蓝光电影,最新电影,电影天堂,影视帝国,人人影视
回复 支持 反对

使用道具 举报

发表于 3 天前 | 显示全部楼层
这位逃犯成为了他的教练和好友。此外来自疗养院的一名护工也加入了他们的旅程。
古哥影视论坛www.gugeys.cc 高清电影,蓝光电影,最新电影,电影天堂,影视帝国,人人影视
回复 支持 反对

使用道具 举报

发表于 3 天前 | 显示全部楼层
谢谢楼主分享
古哥影视论坛www.gugeys.cc 高清电影,蓝光电影,最新电影,电影天堂,影视帝国,人人影视
回复 支持 反对

使用道具 举报

发表于 3 天前 | 显示全部楼层
楼主发贴辛苦了,谢谢楼主分享!我觉得古哥影视的电影是最值得收藏的!
古哥影视论坛www.gugeys.cc 高清电影,蓝光电影,最新电影,电影天堂,影视帝国,人人影视
回复 支持 反对

使用道具 举报

发表于 3 天前 | 显示全部楼层

感谢楼主的无私分享!要想古哥影视好,就靠你我他!
古哥影视论坛www.gugeys.cc 高清电影,蓝光电影,最新电影,电影天堂,影视帝国,人人影视
回复 支持 反对

使用道具 举报

发表于 前天 21:42 | 显示全部楼层
楼主发贴辛苦了,谢谢楼主分享!我觉得古哥影视的电影是最值得收藏的!
古哥影视论坛www.gugeys.cc 高清电影,蓝光电影,最新电影,电影天堂,影视帝国,人人影视
回复 支持 反对

使用道具 举报

懒得打字嘛,点击右侧快捷回复->
您需要登录后才可以回帖 登录 | 注册(分享大片)

本版积分规则

影视帝国免责声明
本站提供网上学习交流和自由讨论使用,所有资源均来自互联网公开渠道,发布和个人言论并不代表本站立场,本站不负任何责任.
如发现有侵权行为,请与我们联系.我们将立刻从网站上删除,并向所有持版权者致最深歉意.
影视帝国论坛已经安全运行

QQ|小黑屋|手机版|Archiver|古哥论坛

GMT+8, 2019-11-12 06:46 , Processed in 0.200307 second(s), 19 queries , Gzip On.

Powered by Discuz! X3.4

© 2001-2017 Comsenz Inc.

快速回复 返回顶部 返回列表