古哥论坛

 找回密码
 注册(分享大片)
查看: 313|回复: 14

[好小子们/好小子]Good.Boys.2019.1080p.BluRay.REMUX.AVC.DTS-HD.MA.5.1-FGT 22.98GB

[复制链接]
发表于 2019-11-8 23:47:19 | 显示全部楼层 |阅读模式
4K天堂


◎译  名 好小子们 / 好小子 / 好小男孩(台) / 好男孩 / 好男孩们 / 曳曳同学会(港)
◎片  名 Good Boys
◎年  代 2019
◎产  地 美国
◎类  别 喜剧 / 冒险
◎语  言 英语
◎上映日期 2019-08-16(美国)
◎IMDb评分 6.8/10 from 16367 users
◎IMDb链接 https://www.imdb.com/title/tt7343762
◎豆瓣评分 7.5/10 from 1005 users
◎蓝光高清   http://www.4ktt.com
◎片  长 90分钟
◎导  演 吉恩·斯图普尼兹基 Gene Stupnitsky
◎编  剧 李·艾森伯格 Lee Eisenberg / 吉恩·斯图普尼兹基 Gene Stupnitsky
◎主  演 雅各布·特伦布莱 Jacob Tremblay
      基思·L·威廉姆斯 Keith L. Williams
      布雷迪·诺恩 Brady Noon
      莫莉·戈登 Molly Gordon
      米多莉·弗朗西斯 Midori Francis
      米莉·戴维斯 Millie Davis
      乔希·卡拉斯 Josh Caras
      威尔·福特 Will Forte
      里尔·莱尔·哈瓦瑞 Lil Rel Howery
      瑞塔 Retta
      麦可拉·沃金丝 Michaela Watkins
      钱斯·赫斯菲尔德 Chance Hurstfield
      伊妮德·雷伊·亚当斯 Enid-Raye Adams
      克雷格·哈斯 Craig Haas
      山姆·理查森 Sam Richardson
      贝妮塔·夏 Benita Ha
      亚历山大·卡尔弗特 Alexander Calvert
      玛雅·斯泰斯-史密斯 Maja Stace-Smith
      马特·埃利斯 Matt Ellis
      玛莉·格雷斯·贝克尔 Marlee Grace Becker
      丽娜·伦纳 Lina Renna
      奥黛丽·斯莫尔曼 Audrey Smallman
      保罗·贝克 Paul Becker
      李·艾森伯格 Lee Eisenberg

◎简  介
  影片围绕着四个12岁叛逆男孩展开,他们想要在父母回家前从洛杉矶郊区前往市中心换掉被摔坏的无人机。

Video
ID : 1
Format : AVC
Format/Info : Advanced Video Codec
Format profile : [email protected]
Format settings : CABAC / 4 Ref Frames
Format settings, CABAC : Yes
Format settings, Reference frames : 4 frames
Format settings, GOP : M=3, N=12
Codec ID : V_MPEG4/ISO/AVC
Duration : 1 h 29 min
Bit rate mode : Variable
Bit rate : 31.3 Mb/s
Maximum bit rate : 34.7 Mb/s
Width : 1 920 pixels
Height : 1 080 pixels
Display aspect ratio : 16:9
Frame rate mode : Constant
Frame rate : 23.976 (24000/1001) FPS
Color space : YUV
Chroma subsampling : 4:2:0
Bit depth : 8 bits
Scan type : Progressive
Bits/(Pixel*Frame) : 0.629
Stream size : 19.6 GiB (85%)
Title : Good.Boys.2019.1080p.BluRay.REMUX.AVC.DTS-HD.MA.5.1-FGT
Language : English
Default : No
Forced : No

Audio #1
ID : 2
Format : DTS XLL
Format/Info : Digital Theater Systems
Commercial name : DTS-HD Master Audio
Codec ID : A_DTS
Duration : 1 h 29 min
Bit rate mode : Variable
Bit rate : 3 425 kb/s
Channel(s) : 6 channels
Channel layout : C L R Ls Rs LFE
Sampling rate : 48.0 kHz
Frame rate : 93.750 FPS (512 SPF)
Bit depth : 24 bits
Compression mode : Lossless
Stream size : 2.14 GiB (9%)
Title : Good.Boys.2019.1080p.BluRay.REMUX.AVC.DTS-HD.MA.5.1-FGT
Language : English
Default : Yes
Forced : No

Audio #2
ID : 3
Format : DTS
Format/Info : Digital Theater Systems
Codec ID : A_DTS
Duration : 1 h 29 min
Bit rate mode : Constant
Bit rate : 768 kb/s
Channel(s) : 6 channels
Channel layout : C L R Ls Rs LFE
Sampling rate : 48.0 kHz
Frame rate : 93.750 FPS (512 SPF)
Bit depth : 24 bits
Compression mode : Lossy
Stream size : 492 MiB (2%)
Title : Good.Boys.2019.1080p.BluRay.REMUX.AVC.DTS-HD.MA.5.1-FGT
Language : Spanish
Default : No
Forced : No

Audio #3
ID : 4
Format : DTS
Format/Info : Digital Theater Systems
Codec ID : A_DTS
Duration : 1 h 29 min
Bit rate mode : Constant
Bit rate : 768 kb/s
Channel(s) : 6 channels
Channel layout : C L R Ls Rs LFE
Sampling rate : 48.0 kHz
Frame rate : 93.750 FPS (512 SPF)
Bit depth : 24 bits
Compression mode : Lossy
Stream size : 492 MiB (2%)
Title : Good.Boys.2019.1080p.BluRay.REMUX.AVC.DTS-HD.MA.5.1-FGT
Language : French
Default : No
Forced : No

Audio #4
ID : 5
Format : AC-3
Format/Info : Audio Coding 3
Commercial name : Dolby Digital
Codec ID : A_AC3
Duration : 1 h 29 min
Bit rate mode : Constant
Bit rate : 192 kb/s
Channel(s) : 2 channels
Channel layout : L R
Sampling rate : 48.0 kHz
Frame rate : 31.250 FPS (1536 SPF)
Bit depth : 16 bits
Compression mode : Lossy
Stream size : 123 MiB (1%)
Title : Good.Boys.2019.1080p.BluRay.REMUX.AVC.DTS-HD.MA.5.1-FGT
Language : English
Service kind : Complete Main
Default : No
Forced : No

Audio #5
ID : 6
Format : AC-3
Format/Info : Audio Coding 3
Commercial name : Dolby Digital
Codec ID : A_AC3
Duration : 1 h 29 min
Bit rate mode : Constant
Bit rate : 192 kb/s
Channel(s) : 2 channels
Channel layout : L R
Sampling rate : 48.0 kHz
Frame rate : 31.250 FPS (1536 SPF)
Bit depth : 16 bits
Compression mode : Lossy
Stream size : 123 MiB (1%)
Title : Good.Boys.2019.1080p.BluRay.REMUX.AVC.DTS-HD.MA.5.1-FGT
Language : English
Service kind : Complete Main
Default : No
Forced : No

Text #1
ID : 7
Format : UTF-8
Codec ID : S_TEXT/UTF8
Codec ID/Info : UTF-8 Plain Text
Duration : 1 h 22 min
Bit rate : 78 b/s
Count of elements : 1492
Stream size : 46.9 KiB (0%)
Title : English-SRT
Language : English
Default : Yes
Forced : No

Text #2
ID : 8
Format : PGS
Muxing mode : zlib
Codec ID : S_HDMV/PGS
Codec ID/Info : Picture based subtitle format used on BDs/HD-DVDs
Duration : 1 h 22 min
Bit rate : 65.4 kb/s
Count of elements : 3415
Stream size : 38.7 MiB (0%)
Title : English-PGS
Language : English
Default : No
Forced : No

Text #3
ID : 9
Format : PGS
Muxing mode : zlib
Codec ID : S_HDMV/PGS
Codec ID/Info : Picture based subtitle format used on BDs/HD-DVDs
Duration : 1 h 28 min
Bit rate : 52.2 kb/s
Count of elements : 2906
Stream size : 33.0 MiB (0%)
Title : Spanish-PGS
Language : Spanish
Default : No
Forced : No

Text #4
ID : 10
Format : PGS
Muxing mode : zlib
Codec ID : S_HDMV/PGS
Codec ID/Info : Picture based subtitle format used on BDs/HD-DVDs
Duration : 1 h 28 min
Bit rate : 54.0 kb/s
Count of elements : 2900
Stream size : 34.1 MiB (0%)
Title : French-PGS
Language : French
Default : No
Forced : No

Text #5
ID : 11
Format : PGS
Muxing mode : zlib
Codec ID : S_HDMV/PGS
Codec ID/Info : Picture based subtitle format used on BDs/HD-DVDs
Duration : 1 h 15 min
Bit rate : 214 b/s
Count of elements : 18
Stream size : 119 KiB (0%)
Title : Spanish-FORCED-PGS
Language : Spanish
Default : No
Forced : No

Text #6
ID : 12
Format : PGS
Muxing mode : zlib
Codec ID : S_HDMV/PGS
Codec ID/Info : Picture based subtitle format used on BDs/HD-DVDs
Duration : 1 h 28 min
Bit rate : 411 b/s
Count of elements : 36
Stream size : 266 KiB (0%)
Title : French-FORCED-PGS
Language : French
Default : No
Forced : No

Menu
00:00:00.000 : en:Chapter 01
00:03:54.025 : en:Chapter 02
00:09:00.164 : en:Chapter 03
00:11:51.168 : en:Chapter 04
00:15:08.657 : en:Chapter 05
00:17:29.840 : en:Chapter 06
00:21:20.696 : en:Chapter 07
00:27:27.687 : en:Chapter 08
00:31:25.675 : en:Chapter 09
00:35:06.104 : en:Chapter 10
00:40:11.867 : en:Chapter 11
00:47:16.208 : en:Chapter 12
00:51:01.183 : en:Chapter 13
00:57:54.387 : en:Chapter 14
01:02:27.952 : en:Chapter 15
01:06:46.544 : en:Chapter 16
01:09:56.901 : en:Chapter 17
01:14:19.204 : en:Chapter 18
01:20:00.796 : en:Chapter 19
01:23:35.427 : en:Chapter 20





游客,如果您要查看本帖隐藏内容请回复,如果您想无广告、免回复、下载附件免影视币请开通VIP:VIP传送门


提示:如迅雷下载提示"任务出错"、"因版权无法下载",请更换【迅雷5】,提取码: ai7u
古哥影视论坛www.gugeys.cc 高清电影,蓝光电影,最新电影,电影天堂,影视帝国,人人影视
提示:如迅雷下载提示"任务出错"、"因版权无法下载",请更换【迅雷5】,提取码: ai7u
发表于 2019-11-9 00:15:15 | 显示全部楼层
多谢分享,下载收藏
古哥影视论坛www.gugeys.cc 高清电影,蓝光电影,最新电影,电影天堂,影视帝国,人人影视
回复 支持 反对

使用道具 举报

发表于 2019-11-9 00:17:07 | 显示全部楼层
感谢楼主的分享啊!
古哥影视论坛www.gugeys.cc 高清电影,蓝光电影,最新电影,电影天堂,影视帝国,人人影视
回复 支持 反对

使用道具 举报

发表于 2019-11-9 02:37:20 | 显示全部楼层

感谢楼主的无私分享!要想古哥影视好,就靠你我他!
古哥影视论坛www.gugeys.cc 高清电影,蓝光电影,最新电影,电影天堂,影视帝国,人人影视
回复 支持 反对

使用道具 举报

发表于 2019-11-9 09:08:16 | 显示全部楼层
感谢楼主的分享啊!
古哥影视论坛www.gugeys.cc 高清电影,蓝光电影,最新电影,电影天堂,影视帝国,人人影视
回复 支持 反对

使用道具 举报

发表于 2019-11-9 18:14:07 | 显示全部楼层
感谢楼主分享!永远支持古哥影视
古哥影视论坛www.gugeys.cc 高清电影,蓝光电影,最新电影,电影天堂,影视帝国,人人影视
回复 支持 反对

使用道具 举报

发表于 2019-11-10 18:48:18 | 显示全部楼层
楼主发贴辛苦了,谢谢楼主分享!我觉得古哥影视的电影是最值得收藏的!
古哥影视论坛www.gugeys.cc 高清电影,蓝光电影,最新电影,电影天堂,影视帝国,人人影视
回复 支持 反对

使用道具 举报

发表于 2019-11-10 21:34:24 | 显示全部楼层

感谢楼主的无私分享!要想古哥影视好,就靠你我他!
古哥影视论坛www.gugeys.cc 高清电影,蓝光电影,最新电影,电影天堂,影视帝国,人人影视
回复 支持 反对

使用道具 举报

发表于 5 天前 | 显示全部楼层

我看不错噢 谢谢楼主!古哥影视越来越好,高清电影还得上这来下载!
古哥影视论坛www.gugeys.cc 高清电影,蓝光电影,最新电影,电影天堂,影视帝国,人人影视
回复 支持 反对

使用道具 举报

发表于 4 天前 | 显示全部楼层
好片收下了,谢谢分享
古哥影视论坛www.gugeys.cc 高清电影,蓝光电影,最新电影,电影天堂,影视帝国,人人影视
回复 支持 反对

使用道具 举报

发表于 4 天前 | 显示全部楼层
楼主太厉害了!楼主,I*老*虎*U!古哥影视绝对是电影爱好的天堂!





......
古哥影视论坛www.gugeys.cc 高清电影,蓝光电影,最新电影,电影天堂,影视帝国,人人影视
回复 支持 反对

使用道具 举报

发表于 4 天前 | 显示全部楼层
楼主发贴辛苦了,谢谢楼主分享!我觉得古哥影视的电影是最值得收藏的!





......
古哥影视论坛www.gugeys.cc 高清电影,蓝光电影,最新电影,电影天堂,影视帝国,人人影视
回复 支持 反对

使用道具 举报

发表于 4 天前 | 显示全部楼层
楼主太厉害了!楼主,I*老*虎*U!古哥影视绝对是电影爱好的天堂!





......
古哥影视论坛www.gugeys.cc 高清电影,蓝光电影,最新电影,电影天堂,影视帝国,人人影视
回复 支持 反对

使用道具 举报

发表于 4 天前 | 显示全部楼层
这东西我收了!谢谢楼主!古哥影视真好!一定要坚持下去,支持不住时请让大家捐助





......
古哥影视论坛www.gugeys.cc 高清电影,蓝光电影,最新电影,电影天堂,影视帝国,人人影视
回复 支持 反对

使用道具 举报

发表于 4 天前 | 显示全部楼层
这个帖子不回对不起自己!我想我是一天也不能离开古哥影视





......
古哥影视论坛www.gugeys.cc 高清电影,蓝光电影,最新电影,电影天堂,影视帝国,人人影视
回复 支持 反对

使用道具 举报

懒得打字嘛,点击右侧快捷回复->
您需要登录后才可以回帖 登录 | 注册(分享大片)

本版积分规则

影视帝国免责声明
本站提供网上学习交流和自由讨论使用,所有资源均来自互联网公开渠道,发布和个人言论并不代表本站立场,本站不负任何责任.
如发现有侵权行为,请与我们联系.我们将立刻从网站上删除,并向所有持版权者致最深歉意.
影视帝国论坛已经安全运行

QQ|小黑屋|手机版|Archiver|古哥论坛

GMT+8, 2019-11-19 07:41 , Processed in 0.187428 second(s), 20 queries , Gzip On.

Powered by Discuz! X3.4

© 2001-2017 Comsenz Inc.

快速回复 返回顶部 返回列表