古哥论坛

 找回密码
 注册(分享大片)
查看: 1984|回复: 146

[天使陷落]2019.1080p.BluRay.REMUX.AVC.DTS-HD.MA.TrueHD.7.1.Atmos-FGT 33.56GB

  [复制链接]
发表于 2019-11-25 12:54:06 | 显示全部楼层 |阅读模式
4K天堂


◎译  名 天使陷落 / 奥林匹斯的陷落3 / 白宫沦陷3﹕天使沦陷(港) / 空军一号陷落
◎片  名 Angel Has Fallen
◎年  代 2019
◎产  地 美国
◎类  别 动作 / 犯罪
◎语  言 英语
◎上映日期 2019-08-23(美国)
◎IMDb评分 6.7/10 from 18202 users
◎IMDb链接 https://www.imdb.com/title/tt6189022
◎豆瓣评分 6.7/10 from 984 users
◎蓝光高清电影 http://www.4ktt.com/
◎片  长 121分钟
◎导  演 里克·罗曼·沃夫 Ric Roman Waugh
◎编  剧 凯特琳·贝内迪克特 Katrin Benedikt / 罗伯特·马克·卡门 Robert Mark Kamen / 克赖顿·罗森博格 Creighton Rothenberger
◎主  演 杰拉德·巴特勒 Gerard Butler
      摩根·弗里曼 Morgan Freeman
      派珀·佩拉博 Piper Perabo
      兰斯·莱迪克 Lance Reddick
      贾达·萍克·史密斯 Jada Pinkett Smith
      蒂姆·布雷克·尼尔森 Tim Blake Nelson
      尼克·诺特 Nick Nolte
      克里斯·勃朗宁 Chris Browning
      丹尼·赫斯顿 Danny Huston
      迈克尔·兰德斯 Michael Landes
      约瑟夫·米尔森 Joseph Millson
      索菲娅·德尔·皮佐 Sophia Del Pizzo
      马克·阿诺德 Mark Arnold
      萨皮尔·阿苏拉 Sapir Azulay
      费雷德里克·施密特 Frederick Schmidt
      马克·史密斯 Mark Rhino Smith
      布伦丹·凯利 Brendan Kelly
      凯瑞·莎勒 Kerry Shale
      奥利·普费弗 Ori Pfeffer
      布莱恩·拉金 Bryan Larkin
      科林·斯廷顿 Colin Stinton
      阿塔纳斯·斯雷布雷夫 Atanas Srebrev
      贾格·帕特尔 Jag Patel
      乔蕾·科斯 Joelle Koissi
      黛博拉·洛克 Deborah Rock
      丹尼尔·厄根 Daniel Eghan
      伯纳多·桑托斯 Bernardo Santos
      内森·库珀 Nathan Cooper
      泰·赫尔利 Ty Hurley
      保罗·布莱克维尔 Paul Blackwell
      米迦勒·博迪 Michael Bodie
      劳拉·马塔沙 Laura Matassa
      凯文·马塔迪恩 Kevin Matadeen
      格雷格·奥维斯 Greg Orvis
      马丁·贝尔曼 Martin Behrman
      乔治娅·古德曼 Georgia Goodman

◎简  介
  美国总统(摩根·弗里曼饰)在遭遇无人机恐怖袭击后身受重伤陷入昏迷,随行人员在多次爆炸中全军覆没,唯一的幸存者——总统多年贴身保镖迈克·班宁(杰拉德·巴特勒饰)却成最大嫌疑犯,被FBI控告企图暗杀总统。班宁必须给自己洗刷冤屈,同时阻止真正的刺杀总统计划,在多方势力围追堵截下,走投无路的他只能寻求一名神秘人的保护……曾经的英雄保镖如今变为通缉犯,班宁将如何脱离险境、保护总统,破解背后的阴谋?
Video
ID : 1
Format : AVC
Format/Info : Advanced Video Codec
Format profile : [email protected]
Format settings : CABAC / 4 Ref Frames
Format settings, CABAC : Yes
Format settings, Reference frames : 4 frames
Codec ID : V_MPEG4/ISO/AVC
Duration : 2 h 1 min
Bit rate mode : Variable
Bit rate : 31.3 Mb/s
Maximum bit rate : 37.0 Mb/s
Width : 1 920 pixels
Height : 1 080 pixels
Display aspect ratio : 16:9
Frame rate mode : Constant
Frame rate : 23.976 (24000/1001) FPS
Color space : YUV
Chroma subsampling : 4:2:0
Bit depth : 8 bits
Scan type : Progressive
Bits/(Pixel*Frame) : 0.631
Stream size : 26.5 GiB (79%)
Title : Angel.Has.Fallen.2019.1080p.BluRay.REMUX.AVC.DTS-HD.MA.TrueHD.7.1.Atmos-FGT
Language : English
Default : No
Forced : No

Audio #1
ID : 2
Format : MLP FBA 16-ch
Format/Info : Meridian Lossless Packing FBA with 16-channel presentation
Commercial name : Dolby TrueHD with Dolby Atmos
Codec ID : A_TRUEHD
Duration : 2 h 1 min
Bit rate mode : Variable
Bit rate : 3 046 kb/s
Maximum bit rate : 4 485 kb/s
Channel(s) : 8 channels
Channel layout : L R C LFE Ls Rs Lb Rb
Sampling rate : 48.0 kHz
Frame rate : 1 200.000 FPS (40 SPF)
Compression mode : Lossless
Stream size : 2.58 GiB (8%)
Title : Angel.Has.Fallen.2019.1080p.BluRay.REMUX.AVC.DTS-HD.MA.TrueHD.7.1.Atmos-FGT
Language : English
Default : Yes
Forced : No
Number of dynamic objects : 11
Bed channel count : 1 channel
Bed channel configuration : LFE

Audio #2
ID : 3
Format : DTS XLL
Format/Info : Digital Theater Systems
Commercial name : DTS-HD Master Audio
Codec ID : A_DTS
Duration : 2 h 1 min
Bit rate mode : Variable
Bit rate : 3 653 kb/s
Channel(s) : 8 channels
Channel layout : C L R LFE Lb Rb Lss Rss
Sampling rate : 48.0 kHz
Frame rate : 93.750 FPS (512 SPF)
Bit depth : 24 bits
Compression mode : Lossless
Stream size : 3.09 GiB (9%)
Title : Angel.Has.Fallen.2019.1080p.BluRay.REMUX.AVC.DTS-HD.MA.TrueHD.7.1.Atmos-FGT
Language : English
Default : No
Forced : No

Audio #3
ID : 4
Format : AC-3
Format/Info : Audio Coding 3
Commercial name : Dolby Digital
Codec ID : A_AC3
Duration : 2 h 1 min
Bit rate mode : Constant
Bit rate : 448 kb/s
Channel(s) : 6 channels
Channel layout : L R C LFE Ls Rs
Sampling rate : 48.0 kHz
Frame rate : 31.250 FPS (1536 SPF)
Bit depth : 16 bits
Compression mode : Lossy
Stream size : 388 MiB (1%)
Title : Angel.Has.Fallen.2019.1080p.BluRay.REMUX.AVC.DTS-HD.MA.TrueHD.7.1.Atmos-FGT
Language : English
Service kind : Complete Main
Default : No
Forced : No

Audio #4
ID : 5
Format : AC-3
Format/Info : Audio Coding 3
Commercial name : Dolby Digital
Codec ID : A_AC3
Duration : 2 h 1 min
Bit rate mode : Constant
Bit rate : 192 kb/s
Channel(s) : 2 channels
Channel layout : L R
Sampling rate : 48.0 kHz
Frame rate : 31.250 FPS (1536 SPF)
Bit depth : 16 bits
Compression mode : Lossy
Stream size : 166 MiB (0%)
Title : Angel.Has.Fallen.2019.1080p.BluRay.REMUX.AVC.DTS-HD.MA.TrueHD.7.1.Atmos-FGT
Language : English
Service kind : Complete Main
Default : No
Forced : No

Audio #5
ID : 6
Format : AC-3
Format/Info : Audio Coding 3
Commercial name : Dolby Digital
Codec ID : A_AC3
Duration : 2 h 1 min
Bit rate mode : Constant
Bit rate : 448 kb/s
Channel(s) : 6 channels
Channel layout : L R C LFE Ls Rs
Sampling rate : 48.0 kHz
Frame rate : 31.250 FPS (1536 SPF)
Bit depth : 16 bits
Compression mode : Lossy
Stream size : 388 MiB (1%)
Title : Angel.Has.Fallen.2019.1080p.BluRay.REMUX.AVC.DTS-HD.MA.TrueHD.7.1.Atmos-FGT
Language : Spanish
Service kind : Complete Main
Default : No
Forced : No

Audio #6
ID : 7
Format : AC-3
Format/Info : Audio Coding 3
Commercial name : Dolby Digital
Codec ID : A_AC3
Duration : 2 h 1 min
Bit rate mode : Constant
Bit rate : 448 kb/s
Channel(s) : 6 channels
Channel layout : L R C LFE Ls Rs
Sampling rate : 48.0 kHz
Frame rate : 31.250 FPS (1536 SPF)
Bit depth : 16 bits
Compression mode : Lossy
Stream size : 388 MiB (1%)
Title : Angel.Has.Fallen.2019.1080p.BluRay.REMUX.AVC.DTS-HD.MA.TrueHD.7.1.Atmos-FGT
Language : English
Service kind : Complete Main
Default : No
Forced : No

Text #1
ID : 8
Format : UTF-8
Codec ID : S_TEXT/UTF8
Codec ID/Info : UTF-8 Plain Text
Duration : 1 h 51 min
Bit rate : 58 b/s
Count of elements : 1452
Stream size : 47.5 KiB (0%)
Title : English-SRT
Language : English
Default : Yes
Forced : No

Text #2
ID : 9
Format : PGS
Muxing mode : zlib
Codec ID : S_HDMV/PGS
Codec ID/Info : Picture based subtitle format used on BDs/HD-DVDs
Duration : 1 h 52 min
Bit rate : 45.1 kb/s
Count of elements : 3109
Stream size : 36.4 MiB (0%)
Title : English-PGS
Language : English
Default : No
Forced : No

Text #3
ID : 10
Format : PGS
Muxing mode : zlib
Codec ID : S_HDMV/PGS
Codec ID/Info : Picture based subtitle format used on BDs/HD-DVDs
Duration : 1 h 51 min
Bit rate : 34.4 kb/s
Count of elements : 2731
Stream size : 27.5 MiB (0%)
Title : Spanish-PGS
Language : Spanish
Default : No
Forced : No

Text #4
ID : 11
Format : PGS
Muxing mode : zlib
Codec ID : S_HDMV/PGS
Codec ID/Info : Picture based subtitle format used on BDs/HD-DVDs
Duration : 1 h 30 min
Bit rate : 280 b/s
Count of elements : 22
Stream size : 186 KiB (0%)
Title : Spanish-FORCED-PGS
Language : Spanish
Default : No
Forced : No

Menu
00:00:00.000 : en:Chapter 01
00:06:48.950 : en:Chapter 02
00:15:08.157 : en:Chapter 03
00:23:13.809 : en:Chapter 04
00:28:35.714 : en:Chapter 05
00:39:39.627 : en:Chapter 06
00:45:33.564 : en:Chapter 07
00:50:56.053 : en:Chapter 08
00:59:23.393 : en:Chapter 09
01:06:50.881 : en:Chapter 10
01:16:25.872 : en:Chapter 11
01:24:11.046 : en:Chapter 12
01:30:14.409 : en:Chapter 13
01:37:42.064 : en:Chapter 14
01:44:54.538 : en:Chapter 15
01:51:08.119 : en:Chapter 16




游客,如果您要查看本帖隐藏内容请回复,如果您想无广告、免回复、下载附件免影视币请开通VIP:VIP传送门


古哥影视论坛www.gugeys.cc 高清电影,蓝光电影,最新电影,电影天堂,影视帝国,人人影视
发表于 2019-11-25 20:23:11 | 显示全部楼层
美国总统(摩根·弗里曼饰)在遭遇无人机恐怖袭击后身受重伤陷入昏迷,随行人员在多次爆炸中全军覆没
古哥影视论坛www.gugeys.cc 高清电影,蓝光电影,最新电影,电影天堂,影视帝国,人人影视
回复 支持 0 反对 1

使用道具 举报

发表于 2019-11-25 13:03:30 | 显示全部楼层
大格式的终于来了!
古哥影视论坛www.gugeys.cc 高清电影,蓝光电影,最新电影,电影天堂,影视帝国,人人影视
回复 支持 反对

使用道具 举报

发表于 2019-11-25 13:09:29 | 显示全部楼层
我看不错噢 谢谢楼主!古哥影视越来越好,高清电影还得上这来下载





......
古哥影视论坛www.gugeys.cc 高清电影,蓝光电影,最新电影,电影天堂,影视帝国,人人影视
回复 支持 反对

使用道具 举报

发表于 2019-11-25 13:18:00 | 显示全部楼层
谢谢楼主分享
古哥影视论坛www.gugeys.cc 高清电影,蓝光电影,最新电影,电影天堂,影视帝国,人人影视
回复 支持 反对

使用道具 举报

发表于 2019-11-25 13:20:48 | 显示全部楼层

既然你诚信诚意的推荐了,那我就勉为其难的看看吧!爱电影,爱生活古哥影视不走平凡路。
古哥影视论坛www.gugeys.cc 高清电影,蓝光电影,最新电影,电影天堂,影视帝国,人人影视
回复 支持 反对

使用道具 举报

发表于 2019-11-25 13:28:43 | 显示全部楼层
楼主发贴辛苦了,谢谢楼主分享!我觉得古哥影视的电影是最值得收藏的!
古哥影视论坛www.gugeys.cc 高清电影,蓝光电影,最新电影,电影天堂,影视帝国,人人影视
回复 支持 反对

使用道具 举报

发表于 2019-11-25 14:01:52 | 显示全部楼层
楼主发贴辛苦了,谢谢楼主分享!我觉得古哥影视的电影是最值得收藏的!
古哥影视论坛www.gugeys.cc 高清电影,蓝光电影,最新电影,电影天堂,影视帝国,人人影视
回复 支持 反对

使用道具 举报

发表于 2019-11-25 14:26:41 | 显示全部楼层
谢谢楼主分享
古哥影视论坛www.gugeys.cc 高清电影,蓝光电影,最新电影,电影天堂,影视帝国,人人影视
回复 支持 反对

使用道具 举报

发表于 2019-11-25 15:32:12 | 显示全部楼层
换个号结构化加工环节改好价格将很快将很快   
古哥影视论坛www.gugeys.cc 高清电影,蓝光电影,最新电影,电影天堂,影视帝国,人人影视
回复 支持 反对

使用道具 举报

发表于 2019-11-25 15:41:04 | 显示全部楼层
楼主发贴辛苦了,谢谢楼主分享!我觉得古哥影视的电影是最值得收藏的!
古哥影视论坛www.gugeys.cc 高清电影,蓝光电影,最新电影,电影天堂,影视帝国,人人影视
回复 支持 反对

使用道具 举报

发表于 2019-11-25 15:50:43 | 显示全部楼层
感谢楼主分享。
古哥影视论坛www.gugeys.cc 高清电影,蓝光电影,最新电影,电影天堂,影视帝国,人人影视
回复 支持 反对

使用道具 举报

发表于 2019-11-25 15:56:34 | 显示全部楼层
楼主发贴辛苦了,谢谢楼主分享!我觉得古哥影视的电影是最值得收藏的!
古哥影视论坛www.gugeys.cc 高清电影,蓝光电影,最新电影,电影天堂,影视帝国,人人影视
回复 支持 反对

使用道具 举报

发表于 2019-11-25 17:23:55 | 显示全部楼层
楼主发贴辛苦了,谢谢楼主分享!我觉得古哥影视的电影是最值得收藏的!
古哥影视论坛www.gugeys.cc 高清电影,蓝光电影,最新电影,电影天堂,影视帝国,人人影视
回复 支持 反对

使用道具 举报

发表于 2019-11-25 18:02:11 | 显示全部楼层
感谢楼主分享!永远支持古哥影视
古哥影视论坛www.gugeys.cc 高清电影,蓝光电影,最新电影,电影天堂,影视帝国,人人影视
回复 支持 反对

使用道具 举报

发表于 2019-11-25 18:59:14 | 显示全部楼层
我看不错噢 谢谢楼主!
古哥影视论坛www.gugeys.cc 高清电影,蓝光电影,最新电影,电影天堂,影视帝国,人人影视
回复 支持 反对

使用道具 举报

发表于 2019-11-25 19:35:35 | 显示全部楼层
感谢分享,下载下载
古哥影视论坛www.gugeys.cc 高清电影,蓝光电影,最新电影,电影天堂,影视帝国,人人影视
回复 支持 反对

使用道具 举报

发表于 2019-11-25 19:54:09 | 显示全部楼层

我看不错噢 谢谢楼主!古哥影视越来越好,高清电影还得上这来下载!
古哥影视论坛www.gugeys.cc 高清电影,蓝光电影,最新电影,电影天堂,影视帝国,人人影视
回复 支持 反对

使用道具 举报

发表于 2019-11-25 20:26:30 | 显示全部楼层
这东西我收了!谢谢楼主!古哥影视真好!一定要坚持下去,支持不住时请让大家捐助
古哥影视论坛www.gugeys.cc 高清电影,蓝光电影,最新电影,电影天堂,影视帝国,人人影视
回复 支持 反对

使用道具 举报

懒得打字嘛,点击右侧快捷回复->
您需要登录后才可以回帖 登录 | 注册(分享大片)

本版积分规则

影视帝国免责声明
本站提供网上学习交流和自由讨论使用,所有资源均来自互联网公开渠道,发布和个人言论并不代表本站立场,本站不负任何责任.
如发现有侵权行为,请与我们联系.我们将立刻从网站上删除,并向所有持版权者致最深歉意.
影视帝国论坛已经安全运行

QQ|小黑屋|手机版|Archiver|古哥论坛

GMT+8, 2019-12-15 20:45 , Processed in 0.244546 second(s), 21 queries , Gzip On.

Powered by Discuz! X3.4

© 2001-2017 Comsenz Inc.

快速回复 返回顶部 返回列表