古哥论坛

 找回密码
 注册(分享大片)
查看: 1961|回复: 80

[1080P] [卧虎藏龙2:青冥宝剑]2016.1080p.BluRay.x264.DD5.1-GHDS 10.61GB

[复制链接]
发表于 2019-11-25 21:59:13 | 显示全部楼层 |阅读模式
4K天堂


◎译  名 卧虎藏龙:青冥宝剑 / 卧虎藏龙2:青冥宝剑 / 卧虎藏龙Ⅱ青冥宝剑 / 铁骑银瓶
◎片  名 Crouching Tiger, Hidden Dragon: Sword of Destiny
◎年  代 2016
◎产  地 中国大陆 / 美国
◎类  别 剧情 / 动作 / 武侠 / 古装
◎语  言 英语
◎上映日期 2016-02-19(中国大陆) / 2016-02-26(美国)
◎IMDb评分  6.1/10 from 16306 users
◎蓝光高清   http://www.4ktt.com
◎豆瓣评分 4.8/10 from 32637 users
◎豆瓣链接 https://movie.douban.com/subject/21327512/
◎片  长 103分钟
◎导  演 袁和平 Woo-ping Yuen
◎编  剧 约翰・福斯克 John Fusco / 王度庐 Dulu Wang
◎主  演 甄子丹 Donnie Yen
       杨紫琼 Michelle Yeoh
       岑勇康 Harry Shum Jr.
       刘承羽 Natasha Liu Bordizzo
       李截 Jason Scott Lee
       原丽淇 Eugenia Yuan
       吴青芸 Thanh Van Ngo
       袁之正 Roger Yuan
       陈钰芸 Juju Chan
       朴云龙 Woon Young Park
       关永扬 Yongyang Guan
       克里斯・彭 Chris Pang
       张舒雅 Shuya Chang


◎简  介  
  武当弃徒戴阎王(李截 Jason Scott Lee 饰)为抢夺青冥古剑夜袭铁小贝勒府,俞秀莲(杨紫琼 饰)重出江湖,携手旧友孟思昭(甄子丹 饰)保护宝剑,被蒙蔽的魏方(岑勇康 Harry Shum Jr. 饰)助纣为虐,雪瓶(刘承羽 Natasha Liu Bordizzo 饰)告知魏方其身世之谜。一场江湖混战,众人力擒戴阎王,保护宝剑周全。
  影片改编自王度庐小说《铁骑银瓶》。
Video
ID                                       : 1
Format                                   : AVC
Format/Info                              : Advanced Video Codec
Format profile                           : [email protected]
Format settings                          : CABAC / 5 Ref Frames
Format settings, CABAC                   : Yes
Format settings, Reference frames        : 5 frames
Codec ID                                 : V_MPEG4/ISO/AVC
Duration                                 : 1 h 42 min
Bit rate                                 : 13.9 Mb/s
Width                                    : 1 920 pixels
Height                                   : 804 pixels
Display aspect ratio                     : 2.40:1
Frame rate mode                          : Constant
Frame rate                               : 23.976 (24000/1001) FPS
Color space                              : YUV
Chroma subsampling                       : 4:2:0
Bit depth                                : 8 bits
Scan type                                : Progressive
Bits/(Pixel*Frame)                       : 0.375
Stream size                              : 9.94 GiB (94%)
Title                                    : Crouching Tiger, Hidden Dragon: Sword of Destiny 2016 1080p BluRay DD5.1 x264-GrupoHDS
Writing library                          : x264 core 148 r2665 a01e339
Encoding settings                        : cabac=1 / ref=5 / deblock=1:-3:-3 / analyse=0x3:0x133 / me=umh / subme=11 / psy=1 / psy_rd=1.10:0.00 / mixed_ref=1 / me_range=32 / chroma_me=1 / trellis=2 / 8x8dct=1 / cqm=0 / deadzone=21,11 / fast_pskip=0 / chroma_qp_offset=-2 / threads=18 / lookahead_threads=3 / sliced_threads=0 / nr=0 / decimate=0 / interlaced=0 / bluray_compat=0 / constrained_intra=0 / bframes=8 / b_pyramid=2 / b_adapt=2 / b_bias=0 / direct=3 / weightb=1 / open_gop=0 / weightp=2 / keyint=240 / keyint_min=23 / scenecut=40 / intra_refresh=0 / rc_lookahead=60 / rc=crf / mbtree=0 / crf=17.0 / qcomp=0.70 / qpmin=0 / qpmax=51 / qpstep=4 / vbv_maxrate=40000 / vbv_bufsize=40000 / crf_max=0.0 / nal_hrd=none / filler=0 / ip_ratio=1.20 / pb_ratio=1.20 / aq=3:0.60
Language                                 : Chinese
Default                                  : Yes
Forced                                   : No

Audio
ID                                       : 2
Format                                   : AC-3
Format/Info                              : Audio Coding 3
Commercial name                          : Dolby Digital
Codec ID                                 : A_AC3
Duration                                 : 1 h 42 min
Bit rate mode                            : Constant
Bit rate                                 : 640 kb/s
Channel(s)                               : 6 channels
Channel layout                           : L R C LFE Ls Rs
Sampling rate                            : 48.0 kHz
Frame rate                               : 31.250 FPS (1536 SPF)
Bit depth                                : 16 bits
Compression mode                         : Lossy
Stream size                              : 469 MiB (4%)
Title                                    : DD 5.1 @ 640 Kbps -> Netflix
Language                                 : English
Service kind                             : Complete Main
Default                                  : No
Forced                                   : No

Text #1
ID                                       : 3
Format                                   : UTF-8
Codec ID                                 : S_TEXT/UTF8
Codec ID/Info                            : UTF-8 Plain Text
Title                                    : Forced
Language                                 : English
Default                                  : Yes
Forced                                   : Yes

Text #2
ID                                       : 4
Format                                   : UTF-8
Codec ID                                 : S_TEXT/UTF8
Codec ID/Info                            : UTF-8 Plain Text
Language                                 : English
Default                                  : No
Forced                                   : No

Text #3
ID                                       : 5
Format                                   : UTF-8
Codec ID                                 : S_TEXT/UTF8
Codec ID/Info                            : UTF-8 Plain Text
Language                                 : Spanish
Default                                  : No
Forced                                   : No

Menu
00:00:00.000                             : en:00:00:00.000
00:07:52.514                             : en:00:07:52.514
00:17:19.288                             : en:00:17:19.288
00:23:26.196                             : en:00:23:26.196
00:35:37.552                             : en:00:35:37.552
00:45:17.840                             : en:00:45:17.840
00:50:26.148                             : en:00:50:26.148
00:57:38.872                             : en:00:57:38.872
01:09:58.903                             : en:01:09:58.903
01:18:32.499                             : en:01:18:32.499
01:26:14.252                             : en:01:26:14.252
01:32:28.877                             : en:01:32:28.877





Crouching.Tiger.Hidden.Dragon.Sword.of.Destiny.2016.1080p.BluRay.x264.DD5.1-GHDS.torrent (53.67 KB, 下载次数: 201)
古哥影视论坛www.gugeys.cc 高清电影,蓝光电影,最新电影,电影天堂,影视帝国,人人影视
发表于 2019-11-25 22:05:12 | 显示全部楼层
分数不高就不看了
古哥影视论坛www.gugeys.cc 高清电影,蓝光电影,最新电影,电影天堂,影视帝国,人人影视
回复 支持 反对

使用道具 举报

发表于 2019-11-25 22:23:09 | 显示全部楼层
回帖是美德,谢谢分享!!
古哥影视论坛www.gugeys.cc 高清电影,蓝光电影,最新电影,电影天堂,影视帝国,人人影视
回复 支持 反对

使用道具 举报

发表于 2019-11-25 22:23:12 | 显示全部楼层
找了好久 谢谢分享
古哥影视论坛www.gugeys.cc 高清电影,蓝光电影,最新电影,电影天堂,影视帝国,人人影视
回复 支持 反对

使用道具 举报

发表于 2019-11-25 22:29:47 | 显示全部楼层
楼主太厉害了!楼主,I*老*虎*U!古哥影视绝对是电影爱好的天堂!





......
古哥影视论坛www.gugeys.cc 高清电影,蓝光电影,最新电影,电影天堂,影视帝国,人人影视
回复 支持 反对

使用道具 举报

发表于 2019-11-25 22:30:59 | 显示全部楼层
古哥影视论坛www.gugeys.cc 高清电影,蓝光电影,最新电影,电影天堂,影视帝国,人人影视
回复 支持 反对

使用道具 举报

发表于 2019-11-25 22:39:39 | 显示全部楼层
楼主发贴辛苦了,谢谢楼主分享!我觉得古哥影视的电影是最值得收藏的!
古哥影视论坛www.gugeys.cc 高清电影,蓝光电影,最新电影,电影天堂,影视帝国,人人影视
回复 支持 反对

使用道具 举报

发表于 2019-11-25 23:46:34 | 显示全部楼层
感谢分享,高版本的还是再下一次吧,收藏了
古哥影视论坛www.gugeys.cc 高清电影,蓝光电影,最新电影,电影天堂,影视帝国,人人影视
回复 支持 反对

使用道具 举报

发表于 2019-11-26 00:06:04 | 显示全部楼层
感谢楼主的分享啊!
古哥影视论坛www.gugeys.cc 高清电影,蓝光电影,最新电影,电影天堂,影视帝国,人人影视
回复 支持 反对

使用道具 举报

发表于 2019-11-26 00:27:13 | 显示全部楼层
楼主发贴辛苦了,谢谢楼主分享!我觉得古哥影视的电影是最值得收藏的!
古哥影视论坛www.gugeys.cc 高清电影,蓝光电影,最新电影,电影天堂,影视帝国,人人影视
回复 支持 反对

使用道具 举报

发表于 2019-11-26 07:25:35 | 显示全部楼层

楼主太厉害了!楼主,I*老*虎*U!古哥影视绝对是电影爱好的天堂!
古哥影视论坛www.gugeys.cc 高清电影,蓝光电影,最新电影,电影天堂,影视帝国,人人影视
回复 支持 反对

使用道具 举报

发表于 2019-11-26 08:58:55 | 显示全部楼层
楼主发贴辛苦了,谢谢楼主分享!我觉得古哥影视的电影是最值得收藏的!
古哥影视论坛www.gugeys.cc 高清电影,蓝光电影,最新电影,电影天堂,影视帝国,人人影视
回复 支持 反对

使用道具 举报

发表于 2019-11-26 09:42:02 | 显示全部楼层
楼主发贴辛苦了,谢谢楼主分享!我觉得古哥影视的电影是最值得收藏的!
古哥影视论坛www.gugeys.cc 高清电影,蓝光电影,最新电影,电影天堂,影视帝国,人人影视
回复 支持 反对

使用道具 举报

发表于 2019-11-26 09:42:19 | 显示全部楼层
这个片子居然还有第二部。。。
古哥影视论坛www.gugeys.cc 高清电影,蓝光电影,最新电影,电影天堂,影视帝国,人人影视
回复 支持 反对

使用道具 举报

发表于 2019-11-26 09:42:51 | 显示全部楼层
hwbjcn 发表于 2019-11-25 22:05
分数不高就不看了

可以等片慌的时候看。。。
古哥影视论坛www.gugeys.cc 高清电影,蓝光电影,最新电影,电影天堂,影视帝国,人人影视
回复 支持 反对

使用道具 举报

发表于 2019-11-26 09:58:01 | 显示全部楼层
楼主发贴辛苦了,谢谢楼主分享!我觉得古哥影视的电影是最值得收藏的!
古哥影视论坛www.gugeys.cc 高清电影,蓝光电影,最新电影,电影天堂,影视帝国,人人影视
回复 支持 反对

使用道具 举报

发表于 2019-11-26 13:48:17 | 显示全部楼层
古装武侠片,支持国产。
古哥影视论坛www.gugeys.cc 高清电影,蓝光电影,最新电影,电影天堂,影视帝国,人人影视
回复 支持 反对

使用道具 举报

发表于 2019-11-26 14:29:00 | 显示全部楼层
楼主发贴辛苦了,谢谢楼主分享!
古哥影视论坛www.gugeys.cc 高清电影,蓝光电影,最新电影,电影天堂,影视帝国,人人影视
回复 支持 反对

使用道具 举报

发表于 2019-11-26 15:49:42 | 显示全部楼层
楼主发贴辛苦了,谢谢楼主分享!我觉得古哥影视的电影是最值得收藏的!
古哥影视论坛www.gugeys.cc 高清电影,蓝光电影,最新电影,电影天堂,影视帝国,人人影视
回复 支持 反对

使用道具 举报

发表于 2019-11-26 17:38:57 | 显示全部楼层
感谢楼主分享!永远支持古哥影视
古哥影视论坛www.gugeys.cc 高清电影,蓝光电影,最新电影,电影天堂,影视帝国,人人影视
回复 支持 反对

使用道具 举报

懒得打字嘛,点击右侧快捷回复->
您需要登录后才可以回帖 登录 | 注册(分享大片)

本版积分规则

影视帝国免责声明
本站提供网上学习交流和自由讨论使用,所有资源均来自互联网公开渠道,发布和个人言论并不代表本站立场,本站不负任何责任.
如发现有侵权行为,请与我们联系.我们将立刻从网站上删除,并向所有持版权者致最深歉意.
影视帝国论坛已经安全运行

QQ|小黑屋|手机版|Archiver|古哥论坛

GMT+8, 2019-12-15 20:47 , Processed in 0.220538 second(s), 20 queries , Gzip On.

Powered by Discuz! X3.4

© 2001-2017 Comsenz Inc.

快速回复 返回顶部 返回列表