古哥论坛

 找回密码
 注册(分享大片)
查看: 5817|回复: 472

[剧情] [利刃出鞘/上流谋杀案]2019.1080p.AMZN.WEBRip.DDP5.1.x264-NTG 外挂中英字幕/9.26GB

  [复制链接]
发表于 2020-2-8 23:33:14 | 显示全部楼层 |阅读模式
4K天堂


◎译  名 利刃出鞘 / 上流谋杀案 / 亮剑 / 出鞘 / 神探白朗:福比利大宅谋杀案(港) / 致命遗产 / 锋回路转(台)
◎片  名 Knives Out
◎年  代 2019
◎产  地 美国
◎类  别 剧情 / 喜剧 / 悬疑 / 犯罪
◎语  言 英语 / 西班牙语
◎上映日期 2019-09-07(多伦多电影节) / 2019-11-27(美国) / 2019-11-29(中国大陆)
◎IMDb评分  8.0/10 from 142299 users
◎IMDb链接  https://www.imdb.com/title/tt8946378
◎豆瓣评分 8.2/10 from 290382 users
◎豆瓣链接 https://movie.douban.com/subject/30318116/
◎片  长 130分钟
◎导  演 莱恩・约翰逊 Rian Johnson
◎编  剧 莱恩・约翰逊 Rian Johnson
◎主  演 丹尼尔・克雷格 Daniel Craig
       安娜・德・阿玛斯 Ana de Armas
       克里斯・埃文斯 Chris Evans
       杰米・李・柯蒂斯 Jamie Lee Curtis
       迈克尔・珊农 Michael Shannon
       唐・约翰逊 Don Johnson
       托妮・科莱特 Toni Collette
       勒凯斯・斯坦菲尔德 Lakeith Stanfield
       克里斯托弗・普卢默 Christopher Plummer
       凯瑟琳・兰福德 Katherine Langford
       杰登・马泰尔 Jaeden Martell
       瑞琪・琳德赫姆 Riki Lindhome
       艾迪・帕特森 Edi Patterson
       弗兰克・奥兹 Frank Oz
       K・卡兰 K Callan
       诺阿・西甘 Noah Segan
       M・埃梅特・沃尔什 M. Emmet Walsh
       玛琳娜・福特 Marlene Forte
       劳尔・卡斯提洛 Raúl Castillo
       雪莉・罗德里格斯 Shyrley Rodriguez
       约瑟夫・高登-莱维特 Joseph Gordon-Levitt
       加布里埃尔・洛莱斯 Gabrielle Lorthe


◎简  介  
  富豪小说家哈兰・斯隆比在自己85岁生日第二天,被发现在自家庄园离奇自杀,遗留了亿万遗产。久负盛名的大侦探布兰科(丹尼尔・克雷格饰)突然被匿名人士雇佣调查此案真相。同时,哈兰的孙子兰森(克里斯・埃文斯饰)也正在秘密调查此案。当布兰科和哈兰・斯隆比家族的其他人对谈时, 他发现事情并没有想象中那么简单。

  哈兰家族没有表面上那么和睦,每个人都有着不可告人的秘密,每个人都想得到遗产……究竟这起命案是自杀还是他杀?似乎每个人都有嫌疑。随着一位遗产继承人的意外亮相,真相谜底渐渐浮出水面……


◎获奖情况  
  第92届奥斯卡金像奖(2020)
  最佳原创剧本(提名) 莱恩・约翰逊

  第77届金球奖(2020)
  电影类 最佳音乐/喜剧片(提名)
  电影类 音乐/喜剧片最佳男主角(提名) 丹尼尔・克雷格
  电影类 音乐/喜剧片最佳女主角(提名) 安娜・德・阿玛斯

  第73届英国电影学院奖(2020)
  电影奖 最佳原创剧本(提名) 莱恩・约翰逊

  第72届美国编剧工会奖(2020)
  电影奖 最佳原创剧本(提名) 莱恩・约翰逊

  第31届美国制片人工会奖(2020)
  最佳电影制片人奖(提名)

  第70届美国剪辑工会奖(2020)
  音乐/喜剧片最佳剪辑(提名) 鲍勃・达克萨

  第24届美国艺术指导工会奖(2020)
  电影奖 最佳当代电影艺术指导(提名) 大卫・格兰克

  第22届美国服装设计工会奖(2020)
  现代电影最佳服装设计 珍妮・伊根

  第91届美国国家评论协会奖(2019)
  最佳群戏
  年度佳片

  第25届美国评论家选择电影奖(2020)
  最佳群戏(提名)
  最佳喜剧片(提名)
  最佳原创剧本(提名) 莱恩・约翰逊

  第20届美国电影学会奖(2019)
  年度佳片

  第24届金卫星奖(2020)
  电影部门 最佳喜剧/音乐片(提名)
  电影部门 喜剧/音乐片最佳男主角(提名) 丹尼尔・克雷格
  电影部门 喜剧/音乐片最佳女主角(提名) 安娜・德・阿玛斯
  电影最佳群像

  第18届华盛顿影评人协会奖(2019)
  最佳群戏

  第40届伦敦影评人协会奖(2020)
  年度电影(提名)

  第32届芝加哥影评人协会奖(2019)
  最佳原创剧本(提名) 莱恩・约翰逊
  最佳艺术指导(提名)

  第4届亚特兰大影评人协会奖(2019)
  十佳影片

  第23届美国在线影评人协会奖(2020)
  最佳影片(提名)
  最佳原创剧本(提名) 莱恩・约翰逊

  第6届豆瓣电影年度榜单(2019)
  评分最高的外语电影(提名)
  评分最高的喜剧片(提名)
Video
ID                                       : 1
Format                                   : AVC
Format/Info                              : Advanced Video Codec
Format profile                           : [email protected]
Format settings                          : CABAC / 4 Ref Frames
Format settings, CABAC                   : Yes
Format settings, Reference frames        : 4 frames
Codec ID                                 : V_MPEG4/ISO/AVC
Duration                                 : 2 h 10 min
Bit rate mode                            : Constant
Bit rate                                 : 10 000 kb/s
Width                                    : 1 920 pixels
Height                                   : 1 040 pixels
Display aspect ratio                     : 1.85:1
Frame rate mode                          : Constant
Frame rate                               : 23.976 (24000/1001) FPS
Color space                              : YUV
Chroma subsampling                       : 4:2:0
Bit depth                                : 8 bits
Scan type                                : Progressive
Bits/(Pixel*Frame)                       : 0.209
Stream size                              : 8.67 GiB (94%)
Default                                  : Yes
Forced                                   : No
Color range                              : Limited
Color primaries                          : BT.709
Transfer characteristics                 : BT.709
Matrix coefficients                      : BT.709

Audio
ID                                       : 2
Format                                   : E-AC-3
Format/Info                              : Enhanced AC-3
Commercial name                          : Dolby Digital Plus
Codec ID                                 : A_EAC3
Duration                                 : 2 h 10 min
Bit rate mode                            : Constant
Bit rate                                 : 640 kb/s
Channel(s)                               : 6 channels
Channel layout                           : L R C LFE Ls Rs
Sampling rate                            : 48.0 kHz
Frame rate                               : 31.250 FPS (1536 SPF)
Compression mode                         : Lossy
Stream size                              : 596 MiB (6%)
Language                                 : English
Service kind                             : Complete Main
Default                                  : Yes
Forced                                   : No

Text #1
ID                                       : 3
Format                                   : UTF-8
Codec ID                                 : S_TEXT/UTF8
Codec ID/Info                            : UTF-8 Plain Text
Duration                                 : 2 h 2 min
Bit rate                                 : 85 b/s
Count of elements                        : 2616
Stream size                              : 76.2 KiB (0%)
Language                                 : English
Default                                  : No
Forced                                   : No

Text #2
ID                                       : 4
Format                                   : UTF-8
Codec ID                                 : S_TEXT/UTF8
Codec ID/Info                            : UTF-8 Plain Text
Duration                                 : 2 h 2 min
Bit rate                                 : 89 b/s
Count of elements                        : 2795
Stream size                              : 79.8 KiB (0%)
Title                                    : SDH
Language                                 : English
Default                                  : No
Forced                                   : No

Menu
00:00:00.000                             : en:Studio Logo
00:00:39.000                             : en:Scene 2
00:02:16.000                             : en:Title Sequence
00:02:21.000                             : en:Scene 4
00:06:49.000                             : en:Scene 5
00:12:48.000                             : en:Scene 6
00:18:31.000                             : en:Scene 7
00:25:12.000                             : en:Scene 8
00:31:49.000                             : en:Scene 9
00:38:52.000                             : en:Scene 10
00:43:01.000                             : en:Scene 11
00:49:44.000                             : en:Scene 12
00:54:28.000                             : en:Scene 13
01:00:14.000                             : en:Scene 14
01:04:54.000                             : en:Scene 15
01:10:26.000                             : en:Scene 16
01:15:37.000                             : en:Scene 17
01:21:55.000                             : en:Scene 18
01:28:50.000                             : en:Scene 19
01:36:15.000                             : en:Scene 20
01:42:17.000                             : en:Scene 21
01:46:54.000                             : en:Scene 22
01:52:17.000                             : en:Scene 23
02:01:45.000                             : en:Scene 24
02:05:13.000                             : en:End Credits





游客,如果您要查看本帖隐藏内容请回复,如果您想无广告、免回复、下载附件免影视币请开通VIP:VIP传送门



[利刃出鞘/上流谋杀案]Knives.Out.2019.WEBRip.Web版中英文字幕包
http://www.91mz.cc/thread-656-1-1.html
(出处: 魔爪论坛)

古哥影视论坛www.gugeys.cc 高清电影,蓝光电影,最新电影,电影天堂,影视帝国,人人影视
发表于 2020-2-8 23:42:41 | 显示全部楼层
多谢楼主分享!!!
古哥影视论坛www.gugeys.cc 高清电影,蓝光电影,最新电影,电影天堂,影视帝国,人人影视
回复 支持 反对

使用道具 举报

发表于 2020-2-8 23:43:59 | 显示全部楼层
楼主太厉害了!楼主,I*老*虎*U!古哥影视绝对是电影爱好的天堂!





......
古哥影视论坛www.gugeys.cc 高清电影,蓝光电影,最新电影,电影天堂,影视帝国,人人影视
回复 支持 反对

使用道具 举报

发表于 2020-2-8 23:54:26 | 显示全部楼层
谢谢分享谢谢分享
古哥影视论坛www.gugeys.cc 高清电影,蓝光电影,最新电影,电影天堂,影视帝国,人人影视
回复 支持 反对

使用道具 举报

发表于 2020-2-9 00:03:09 | 显示全部楼层
这个电影不错的,电影院看的,现在保留一份
古哥影视论坛www.gugeys.cc 高清电影,蓝光电影,最新电影,电影天堂,影视帝国,人人影视
回复 支持 反对

使用道具 举报

发表于 2020-2-9 00:08:17 | 显示全部楼层
楼主发贴辛苦了,谢谢楼主分享!我觉得古哥影视的电影是最值得收藏的!
古哥影视论坛www.gugeys.cc 高清电影,蓝光电影,最新电影,电影天堂,影视帝国,人人影视
回复 支持 反对

使用道具 举报

发表于 2020-2-9 00:09:15 | 显示全部楼层
楼主发贴辛苦了,谢谢楼主分享!我觉得古哥影视的电影是最值得收藏的!
古哥影视论坛www.gugeys.cc 高清电影,蓝光电影,最新电影,电影天堂,影视帝国,人人影视
回复 支持 反对

使用道具 举报

发表于 2020-2-9 00:09:21 | 显示全部楼层

楼主太厉害了!楼主,I*老*虎*U!古哥影视绝对是电影爱好的天堂!
古哥影视论坛www.gugeys.cc 高清电影,蓝光电影,最新电影,电影天堂,影视帝国,人人影视
回复 支持 反对

使用道具 举报

发表于 2020-2-9 00:11:02 | 显示全部楼层
多谢楼主分享
古哥影视论坛www.gugeys.cc 高清电影,蓝光电影,最新电影,电影天堂,影视帝国,人人影视
回复 支持 反对

使用道具 举报

发表于 2020-2-9 00:12:58 | 显示全部楼层
楼主发贴辛苦了,谢谢楼主分享!我觉得古哥影视的电影是最值得收藏的!
古哥影视论坛www.gugeys.cc 高清电影,蓝光电影,最新电影,电影天堂,影视帝国,人人影视
回复 支持 反对

使用道具 举报

发表于 2020-2-9 00:18:10 | 显示全部楼层

感谢楼主的无私分享!要想古哥影视好,就靠你我他!
古哥影视论坛www.gugeys.cc 高清电影,蓝光电影,最新电影,电影天堂,影视帝国,人人影视
回复 支持 反对

使用道具 举报

发表于 2020-2-9 00:19:51 | 显示全部楼层
谢谢楼主分享
古哥影视论坛www.gugeys.cc 高清电影,蓝光电影,最新电影,电影天堂,影视帝国,人人影视
回复 支持 反对

使用道具 举报

发表于 2020-2-9 00:21:02 | 显示全部楼层

既然你诚信诚意的推荐了,那我就勉为其难的看看吧!爱电影,爱生活古哥影视不走平凡路。
古哥影视论坛www.gugeys.cc 高清电影,蓝光电影,最新电影,电影天堂,影视帝国,人人影视
回复 支持 反对

使用道具 举报

发表于 2020-2-9 00:23:07 | 显示全部楼层
楼主发贴辛苦了,谢谢楼主分享!我觉得古哥影视的电影是最值得收藏的!
古哥影视论坛www.gugeys.cc 高清电影,蓝光电影,最新电影,电影天堂,影视帝国,人人影视
回复 支持 反对

使用道具 举报

发表于 2020-2-9 00:23:43 | 显示全部楼层
多谢楼主分享!
古哥影视论坛www.gugeys.cc 高清电影,蓝光电影,最新电影,电影天堂,影视帝国,人人影视
回复 支持 反对

使用道具 举报

发表于 2020-2-9 00:26:20 | 显示全部楼层
多谢分享,下载喽
古哥影视论坛www.gugeys.cc 高清电影,蓝光电影,最新电影,电影天堂,影视帝国,人人影视
回复 支持 反对

使用道具 举报

发表于 2020-2-9 00:27:18 | 显示全部楼层
感谢楼主的分享啊!
古哥影视论坛www.gugeys.cc 高清电影,蓝光电影,最新电影,电影天堂,影视帝国,人人影视
回复 支持 反对

使用道具 举报

发表于 2020-2-9 00:32:14 | 显示全部楼层
终于等到了
古哥影视论坛www.gugeys.cc 高清电影,蓝光电影,最新电影,电影天堂,影视帝国,人人影视
回复 支持 反对

使用道具 举报

懒得打字嘛,点击右侧快捷回复->
您需要登录后才可以回帖 登录 | 注册(分享大片)

本版积分规则

影视帝国免责声明
本站提供网上学习交流和自由讨论使用,所有资源均来自互联网公开渠道,发布和个人言论并不代表本站立场,本站不负任何责任.
如发现有侵权行为,请与我们联系.我们将立刻从网站上删除,并向所有持版权者致最深歉意.
影视帝国论坛已经安全运行

QQ|小黑屋|手机版|Archiver|古哥论坛

GMT+8, 2020-2-18 05:23 , Processed in 0.226133 second(s), 22 queries , Gzip On.

Powered by Discuz! X3.4

© 2001-2017 Comsenz Inc.

快速回复 返回顶部 返回列表